Скачать через торрент Примите наши соболезнования, Ниномия-кун Goshuushou-sama Ninomiya-kun бесплатно Аниме Все серии на русском torrent

Если у вас наблюдаются проблемы со скриншотами, переходом по ссылками, скачиванием торрентов - проблемы в блокировщике рекламы AdBlock. #хорошегоДня!


Статистика раздачи
Размер:  73.22 GB   |    Зарегистрирован:  2 месяца 17 дней   |    .torrent скачан:  6 раз   |   
Раздают:  1  
   
Загрузка...
 
Автор Сообщение

Galfimbul

avatar Galfimbul


Примите наши соболезнования, Ниномия-кун / Goshuushou-sama Ninomiya-kun

Год выпуска: 2007
Страна: Япония
Жанр: комедия, романтика, этти, школа
Тип: TV
Продолжительность: 12 эп. по 24 мин.
Озвучка:

Одноголосая (муж) от Cuba77

Русские субтитры: есть (отдельным файлом, формат .ass)
Перевод:

Pelikan, r00teniy, Mats Graule-Lade

Хардсаб: НетРежиссер: Ёсикава Кодзи
Студия: AIC Spirits

Описание: Синго Ниномия живет вместе с сестрой Рёко, непревзойденным мастером боевых искусств и, по совместительству, спецназовцем (Ниномия-старшие сейчас «где-то за границей», и сын уверен, что у родителей всё в порядке, хотя знать о себе они не дают). Не удивительно, что Синго растет, непрерывно совершенствуя свое тело и волю. И вот теперь, наконец, ему потребуются результаты тренировок: бравая Рёко договорилась с семьей суккубов о том, что ее брат возьмет на свое попечение юную Маю Цукимура – суккуба с могучей аурой притяжения и сильнейшей андрофобией (боязнью мужчин).

Так Ниномия-кун оказался телохранителем, гувернером и секс-терапевтом для застенчивой и неодолимо привлекательной Маю. И это ужасно не понравилось президенту школьного совета Рэйке Ходзю, деспотичной маленькой богачке...

© Анастасия Розанова, World Art

Качество: Blu-Ray Remux
Формат: MKV
Видео кодек: AVC
Аудио кодек: FLAC
Видео: 1920x1080 (16:9) 23,976 fps ~34,4 Mbps 8bit
Аудио:
Jap FLAC, 48000Hz, ~657 Kbps, 2ch
RUS (ext) AAC, 44100Hz, ~128 Kbps, 2ch

Чаптеры присутствуют.
01. Я тебя поцелую
02. Я к тебе ворвусь
03. Давай прогуляемся
04. Давай приберёмся в доме
05. Сходим на пляж
06. Вспомним!
07. Не вешай нос!
08. Дай мне это съесть!
09. Схвати его!
10. Пойдём развлекаться
11. Не убегай!
12. Только вперёд!
Общее
Уникальный идентификатор : 232874478613801873882263831416476786677 (0xAF31FE4008D393BEBFEFD76532D7DFF5)
Полное имя : Z:\Anime Release - working\Ninomiya\[anti-raws]Goshuushou-sama Ninomiya-kun ep.01[BDRemux].mkv
Формат : Matroska
Версия формата : Version 4 / Version 2
Размер файла : 6,44 Гбайт
Продолжительность : 25 м. 42 с.
Режим общего битрейта : Переменный
Общий поток : 35,9 Мбит/сек
Дата кодирования : UTC 2017-09-02 21:31:20
Программа кодирования : mkvmerge v15.0.0 ('Duel with the Devil') 64-bit
Библиотека кодирования : libebml v1.3.5 + libmatroska v1.4.5

Видео
Идентификатор : 2
Формат : AVC
Формат/Информация : Advanced Video Codec
Профиль формата : High@L4.1
Параметр CABAC формата : Да
Параметр ReFrames формата : 2 кадра
Идентификатор кодека : V_MPEG4/ISO/AVC
Продолжительность : 25 м. 42 с.
Вид битрейта : Переменный
Битрейт : 35,2 Мбит/сек
Ширина : 1920 пикселей
Высота : 1080 пикселей
Соотношение сторон : 16:9
Режим частоты кадров : Постоянный
Частота кадров : 23,976 (24000/1001) кадра/сек
Цветовое пространство : YUV
Субдискретизация насыщенности : 4:2:0
Битовая глубина : 8 бит
Тип развёртки : Прогрессивная
Бит/(Пиксели*Кадры) : 0.709
Размер потока : 6,33 Гбайт (98%)
Default : Нет
Forced : Нет

Аудио
Идентификатор : 1
Формат : FLAC
Формат/Информация : Free Lossless Audio Codec
Идентификатор кодека : A_FLAC
Продолжительность : 25 м. 42 с.
Вид битрейта : Переменный
Битрейт : 657 Кбит/сек
Каналы : 2 канала
Расположение каналов : Front: L R
Частота : 48,0 КГц
Частота кадров : 11,719 кадров/сек (4096 spf)
Битовая глубина : 16 бит
Размер потока : 121 Мбайт (2%)
Библиотека кодирования : libFLAC 1.2.1 (UTC 2007-09-17)
Default : Да
Forced : Нет

Меню
00:00:00.000 : en:00:00:00.000
00:01:00.978 : en:00:01:00.978
00:02:31.026 : en:00:02:31.026
00:12:56.985 : en:00:12:56.985
00:23:56.018 : en:00:23:56.018
00:25:26.024 : en:00:25:26.024
...4000715
...3978263
--BDRip

Эта раздача - BDRemux


Трекер:  [ 03-Сен-2017 16:01 ]

  

Скачать .torrent

Размер .torrent файла 95 KB


Размер: 73.22 GB
Хэш (hash) релиза: 1d63ae4360137e565f2d772737c97855a8da5fac
Подписка на обновления:

Торренты, похожие на Примите наши соболезнования, Ниномия-кун Goshuushou-sama Ninomiya-kun скачать торрент

Форум Название Автор Размер S L Добавлен
Аниме | Rips ·· Примите наши соболезнования, Ниномия-кун / My Heartfelt Sympathy, Ninomiya-kun / Goshuushou-sama Ninomiya-kun [1-12 из 12 эп.] [RUS+JAP+SUB] [2007 г., комедия, романтика, сёнэн, DVDRip][Любительская] Nomak 36051675503.36 GB 0 0 1290021410

22:16

17-Ноя-10

Еще никто не оставлял запись к записи скачать торрент Примите наши соболезнования, Ниномия-кун Goshuushou-sama Ninomiya-kun . Будь первым!

!Обратная связь