[iPad] : Alien: Covenant torrent

, , - AdBlock. #!


2.1 GB   |    :  21    |    .torrent :  7    |   
1  
   
...
 

Galfimbul

avatar Galfimbul


: / Alien: Covenant


6.108 / 10 6.70 / 10
: 2017
: , , , ,
: , ,
: 02:02:03

: (Blu-ray CEE)
:
C: ,
:
: , , Β
: , ,
:
:
: , ,
:
: , , , , , , , , ,

: $97 000 000
: $74 207 616
: + $158 794 273 = $233 056 304
: $7 528 949

: 4 2017
(): 18 2017, û

: , , , , , . , . : BDRemux
: BDRip
: SD (576p)
: M4V
: H.264, 1024x432, 2.40:1, 2 200 Kbps, 23.976 (24000/1001) fps

1: / (Blu-ray CEE), AAC / 2.0 / 128 Kbps / 48.0 KHz
2: / , AAC / 2.0 / 128 Kbps / 48.0 KHz

1:
2:
Sort Name: Alien: Covenant
XID: Apple:vendor_id:2017-695548
contentID: 1231319469
Copyright: 2017 Twentieth Century Fox Film Corporation. All rights reserved.
Screenwriters: , , Β
Producers: , ,
Director:
Cast: , , , , , , , , ,
Studio: 20th Century Fox
Rating Annotation: Rated R for sci-fi violence, bloody images, language and some sexuality/nudity.
Rating: 5
Long Description: , , , , , - . - , .
Description: , , , , , - .
Release Date: 2017-05-04T08:00:00Z
Genre: Sci-Fi & Fantasy
Artist: Ridley Scott
Name: Alien: Covenant
General
Complete name : /Users/imac/HandBrake/Alien.Covenant.(SD).(pk).m4v
Format : MPEG-4
Codec ID : M4V (M4V /M4A /mp42/isom)
File size : 2.10 GiB
Duration : 2h 2mn
Overall bit rate mode : Variable
Overall bit rate : 2 460 Kbps
Movie name : Alien: Covenant
Performer : Ridley Scott
Director :
Actor : / / / / / / / / /
Screenplay by : / / Β
Producer : / /
Production studio : 20th Century Fox
Genre : Sci-Fi & Fantasy
ContentType : Short Film
Description : , , , , , - .
Recorded date : UTC 2017-05-04 08:00:00
Encoded date : UTC 2017-09-03 09:46:22
Tagged date : UTC 2017-09-03 09:47:35
Copyright : 2017 Twentieth Century Fox Film Corporation. All rights reserved.
Cover : Yes
Rating : None
Title/Sort : Alien: Covenant
LongDescription : , , , , , - . - , .
AppleStoreCatalogID : 1231319469
Vendor : Apple:vendor_id:2017-695548
ContentRating : mpaa|R|400|Rated R for sci-fi violence, bloody images, language and some sexuality/nudity.

Video #1
ID : 1
Format : AVC
Format/Info : Advanced Video Codec
Format profile : High@L3.1
Format settings, CABAC : Yes
Format settings, ReFrames : 9 frames
Codec ID : avc1
Codec ID/Info : Advanced Video Coding
Duration : 2h 2mn
Source duration : 2h 2mn
Bit rate : 2 200 Kbps
Width : 1 024 pixels
Height : 432 pixels
Display aspect ratio : 2.40:1
Frame rate mode : Variable
Frame rate : 23.976 (24000/1001) fps
Minimum frame rate : 23.974 fps
Maximum frame rate : 23.981 fps
Color space : YUV
Chroma subsampling : 4:2:0
Bit depth : 8 bits
Scan type : Progressive
Bits/(Pixel*Frame) : 0.207
Stream size : 1.87 GiB (89%)
Source stream size : 1.87 GiB (89%)
Title : Main Program
Writing library : x264 core 148 r2708 86b7198
Encoding settings : cabac=1 / ref=9 / deblock=1:0:0 / analyse=0x3:0x113 / me=umh / subme=9 / psy=1 / psy_rd=1.00:0.00 / mixed_ref=1 / me_range=32 / chroma_me=1 / trellis=1 / 8x8dct=1 / cqm=0 / deadzone=21,11 / fast_pskip=1 / chroma_qp_offset=-2 / threads=13 / lookahead_threads=1 / sliced_threads=0 / nr=0 / decimate=1 / interlaced=0 / bluray_compat=0 / constrained_intra=0 / bframes=6 / b_pyramid=2 / b_adapt=2 / b_bias=0 / direct=1 / weightb=1 / open_gop=0 / weightp=2 / keyint=240 / keyint_min=24 / scenecut=40 / intra_refresh=0 / rc_lookahead=40 / rc=2pass / mbtree=1 / bitrate=2200 / ratetol=1.0 / qcomp=0.60 / qpmin=0 / qpmax=69 / qpstep=4 / cplxblur=20.0 / qblur=0.5 / ip_ratio=1.40 / aq=1:1.00
Language : English
Encoded date : UTC 2017-09-03 09:46:22
Tagged date : UTC 2017-09-03 09:46:28
Color range : Limited
Color primaries : BT.709
Transfer characteristics : BT.709
Matrix coefficients : BT.709
Menus : 6,7

Video #2
ID : 7
Format : JPEG
Codec ID : jpeg
Duration : 2h 2mn
Bit rate mode : Variable
Bit rate : 715 bps
Width : 640 pixels
Height : 270 pixels
Display aspect ratio : 2.40:1
Frame rate mode : Variable
Frame rate : 0.003 fps
Minimum frame rate : 0.002 fps
Maximum frame rate : 0.005 fps
Color space : YUV
Chroma subsampling : 4:2:0
Bit depth : 8 bits
Compression mode : Lossy
Bits/(Pixel*Frame) : 1.379
Stream size : 698 KiB (0%)
Title : Chapter Images
Language : English
Default : No
Encoded date : UTC 2017-09-03 09:46:39
Tagged date : UTC 2017-09-03 09:46:39
Menu For : 1

Audio #1
ID : 2
Format : AAC
Format/Info : Advanced Audio Codec
Format profile : LC
Codec ID : 40
Duration : 2h 2mn
Bit rate mode : Variable
Bit rate : 126 Kbps
Maximum bit rate : 187 Kbps
Channel(s) : 2 channels
Channel positions : Front: L R
Sampling rate : 48.0 KHz
Frame rate : 46.875 fps (1024 SPF)
Compression mode : Lossy
Stream size : 110 MiB (5%)
Title : Russian Stereo
Language : Russian
Default : Yes
Alternate group : 1
Encoded date : UTC 2017-09-03 09:46:22
Tagged date : UTC 2017-09-03 09:46:33

Audio #2
ID : 3
Format : AAC
Format/Info : Advanced Audio Codec
Format profile : LC
Codec ID : 40
Duration : 2h 2mn
Bit rate mode : Variable
Bit rate : 126 Kbps
Maximum bit rate : 180 Kbps
Channel(s) : 2 channels
Channel positions : Front: L R
Sampling rate : 48.0 KHz
Frame rate : 46.875 fps (1024 SPF)
Compression mode : Lossy
Stream size : 110 MiB (5%)
Title : English Stereo
Language : English
Default : No
Alternate group : 1
Encoded date : UTC 2017-09-03 09:46:22
Tagged date : UTC 2017-09-03 09:46:33

Text #1
ID : 4
Format : Timed Text
Muxing mode : sbtl
Codec ID : tx3g
Duration : 1h 55mn
Bit rate mode : Variable
Bit rate : 82 bps
Stream size : 69.4 KiB (0%)
Title : Russian full
Language : Russian
Default : Yes
Forced : No
Alternate group : 2
Encoded date : UTC 2017-09-03 09:46:22
Tagged date : UTC 2017-09-03 09:46:26

Text #2
ID : 5
Format : Timed Text
Muxing mode : sbtl
Codec ID : tx3g
Duration : 1h 55mn
Bit rate mode : Variable
Bit rate : 54 bps
Stream size : 45.8 KiB (0%)
Title : English full
Language : English
Default : No
Forced : No
Alternate group : 2
Encoded date : UTC 2017-09-03 09:46:22
Tagged date : UTC 2017-09-03 09:46:26

Menu #1
00:00:00.000 : Chapter 01
00:04:47.662 : Chapter 02
00:13:07.495 : Chapter 03
00:18:11.924 : Chapter 04
00:22:46.448 : Chapter 05
00:27:51.169 : Chapter 06
00:33:12.907 : Chapter 07
00:37:18.736 : Chapter 08
00:42:19.912 : Chapter 09
00:47:43.694 : Chapter 10
00:52:04.371 : Chapter 11
00:55:56.269 : Chapter 12
01:00:17.447 : Chapter 13
01:06:20.643 : Chapter 14
01:11:25.030 : Chapter 15
01:16:35.883 : Chapter 16
01:21:10.032 : Chapter 17
01:28:18.793 : Chapter 18
01:31:21.559 : Chapter 19
01:34:52.436 : Chapter 20
01:39:23.666 : Chapter 21
01:43:35.876 : Chapter 22
01:50:49.309 : Chapter 23
01:55:27.754 : Chapter 24

Menu #2
ID : 6
Codec ID : text
Duration : 2h 2mn
Language : English
Encoded date : UTC 2017-09-03 09:46:33
Tagged date : UTC 2017-09-03 09:46:33
Bit rate mode : CBR
Menu For : 1
00:00:00.000 : Chapter 01
00:04:47.662 : Chapter 02
00:13:07.495 : Chapter 03
00:18:11.924 : Chapter 04
00:22:46.448 : Chapter 05
00:27:51.169 : Chapter 06
00:33:12.907 : Chapter 07
00:37:18.736 : Chapter 08
00:42:19.912 : Chapter 09
00:47:43.694 : Chapter 10
00:52:04.371 : Chapter 11
00:55:56.269 : Chapter 12
01:00:17.447 : Chapter 13
01:06:20.643 : Chapter 14
01:11:25.030 : Chapter 15
01:16:35.883 : Chapter 16
01:21:10.032 : Chapter 17
01:28:18.793 : Chapter 18
01:31:21.559 : Chapter 19
01:34:52.436 : Chapter 20
01:39:23.666 : Chapter 21
01:43:35.876 : Chapter 22
01:50:49.309 : Chapter 23
01:55:27.754 : Chapter 24
x264 [info]: frame I:1662 Avg QP:13.38 size: 80816
x264 [info]: frame P:41947 Avg QP:16.03 size: 22870
x264 [info]: frame B:131975 Avg QP:18.45 size: 6961
x264 [info]: consecutive B-frames: 3.4% 3.7% 10.4% 23.3% 19.1% 29.3% 10.7%
x264 [info]: mb I I16..4: 9.3% 65.6% 25.1%
x264 [info]: mb P I16..4: 1.5% 8.8% 2.7% P16..4: 37.0% 25.2% 15.8% 0.0% 0.0% skip: 8.9%
x264 [info]: mb B I16..4: 0.1% 1.0% 0.5% B16..8: 40.2% 10.4% 3.0% direct: 4.4% skip:40.4% L0:46.5% L1:44.9% BI: 8.6%
x264 [info]: 8x8 transform intra:65.3% inter:67.2%
x264 [info]: coded y,uvDC,uvAC intra: 87.7% 75.4% 50.6% inter: 25.4% 18.7% 3.4%
x264 [info]: i16 v,h,dc,p: 23% 16% 17% 45%
x264 [info]: i8 v,h,dc,ddl,ddr,vr,hd,vl,hu: 8% 7% 5% 11% 15% 14% 15% 12% 13%
x264 [info]: i4 v,h,dc,ddl,ddr,vr,hd,vl,hu: 7% 7% 3% 10% 16% 14% 15% 12% 15%
x264 [info]: i8c dc,h,v,p: 41% 28% 18% 13%
x264 [info]: Weighted P-Frames: Y:8.0% UV:4.2%
x264 [info]: ref P L0: 49.5% 9.0% 15.1% 7.6% 5.6% 4.3% 3.6% 2.7% 2.3% 0.3% 0.0%
x264 [info]: ref B L0: 69.6% 12.3% 6.8% 3.8% 3.2% 2.3% 1.3% 0.6%
x264 [info]: ref B L1: 93.4% 6.6%
x264 [info]: kb/s:2198.25
Apple TV, iPad, iPhone, iPod Touch.
Windows VLC media player

 ·  , , FAQ-
:  [ 03--2017 13:12 ]

  

.torrent

.torrent 21 KB


: 2.1 GB
(hash) : d6947c637d0fd6db5025d1329e3a34f0d61c1b2e
··
...

[iPad] : Alien: Covenant . !

!