Скачать через торрент Жила-была последняя мушка Фильм бесплатно в хорошем качестве torrent

Скачивайте на UnionPeer.org фильмы через торрент без регистрации. Новинки кино в хорошем качестве через торрент. На UnionPeer.org можно скачать через торрент фильмы 2014 и 2015 годов. Самые новые фильмы.

Скачать торрент Жила-была последняя мушка бесплатно через .torrent фильм мультфильм сериал

Если у вас наблюдаются проблемы со скриншотами, переходом по ссылками, скачиванием торрентов - проблемы в блокировщике рекламы AdBlock. #хорошегоДня!


Статистика раздачи
Размер:  206 MB   |    Зарегистрирован:  16 дней   |    .torrent скачан:  8 раз   |   
Раздают:  1  
   
Загрузка...
 
Автор Сообщение

Galfimbul

avatar Galfimbul


Жила-была последняя мушка

Страна: Беларусь
Жанр: мультфильм, экранизация
Продолжительность: 00:16:00
Год выпуска: 2009
Перевод: не требуется
Русские субтитры: нет

Режиссёр: Владимир Петкевич
Описание: По сказке Дмитрия Мамина-Сибиряка из сборника "Алёнушкины сказки".
Жизнь мухи коротка. Но за это время она успевает пережить и испытать свежесть первых чувств, радость первых открытий, одиночество долгого зимнего дня, разочарование несбывшихся надежд…

Качество: WEBRip
Формат: AVI
Видео: 1594 kbps, 704х528 (4:3), 25.000 fps, MPEG-4 Visual (XviD)
Аудио: 192 kbps, 44.1 kHz, 2 channels, MPEG Audio (MP3)
Субтитры: отсутствуют
GeneralComplete name : Жила-была последняя мушка (2009).aviFormat : AVIFormat/Info : Audio Video InterleaveFile size : 206 MiBDuration : 16mn 0sOverall bit rate : 1 799 KbpsWriting application : MEncoder SVN-r30881(20100311-gcc4.3.3)Writing library : MPlayer

VideoID : 0Format : MPEG-4 VisualFormat profile : Advanced Simple@L5Format settings, BVOP : 2Format settings, QPel : NoFormat settings, GMC : No warppointsFormat settings, Matrix : Default (H.263)Codec ID : XVIDCodec ID/Hint : XviDDuration : 16mn 0sBit rate : 1 594 KbpsWidth : 704 pixelsHeight : 528 pixelsDisplay aspect ratio : 4:3Original display aspect ratio : 4:3Frame rate : 25.000 fpsColor space : YUVChroma subsampling : 4:2:0Bit depth : 8 bitsScan type : ProgressiveCompression mode : LossyBits/(Pixel*Frame) : 0.172Stream size : 183 MiB (89%)Writing library : XviD 1.2.1 (UTC 2008-12-04)

AudioID : 1Format : MPEG AudioFormat version : Version 1Format profile : Layer 3Mode : Joint stereoMode extension : MS StereoCodec ID : 55Codec ID/Hint : MP3Duration : 16mn 0sBit rate mode : ConstantBit rate : 192 KbpsChannel(s) : 2 channelsSampling rate : 44.1 KHzCompression mode : LossyDelay relative to video : 40msStream size : 22.0 MiB (11%)Alignment : Aligned on interleavesInterleave, duration : 26 ms (0.65 video frame)Interleave, preload duration : 522 msWriting library : LAME3.98


Трекер:  [ 03-Сен-2017 05:36 ]

  

Скачать .torrent

Размер .torrent файла 16 KB


Размер: 206 MB
Хэш (hash) релиза: 14df9e97ad523d51e375f31bcfda3f33e7580813
Подписка на обновления:

Еще никто не оставлял запись к записи скачать торрент Жила-была последняя мушка . Будь первым!

!Обратная связь