Скачать через торрент Сегодня вечером. Как снимается шоу «Голос»: наставники раскрывают все карты Фильм бесплатно в хорошем качестве torrent

Скачивайте на UnionPeer.org фильмы через торрент без регистрации. Новинки кино в хорошем качестве через торрент. На UnionPeer.org можно скачать через торрент фильмы 2014 и 2015 годов. Самые новые фильмы.

Скачать торрент Сегодня вечером. Как снимается шоу «Голос»: наставники раскрывают все карты бесплатно через .torrent фильм мультфильм сериал

Если у вас наблюдаются проблемы со скриншотами, переходом по ссылками, скачиванием торрентов - проблемы в блокировщике рекламы AdBlock. #хорошегоДня!


Статистика раздачи
Размер:  9.7 GB   |    Зарегистрирован:  22 дня   |    .torrent скачан:  1 раз   |   
Раздают:  1  
   
Загрузка...
 
Автор Сообщение

Galfimbul

avatar Galfimbul


Сегодня вечером. Как снимается шоу «Голос»: наставники раскрывают все картыГод выпуска: 2017
Страна: Россия
Жанр: Ток-шоу
Продолжительность: 02:15:23
Перевод: Не требуется
Русские субтитры: нет
Телеканал: «Первый канал HD»
Выпущено: Россия, ЗАО «Первый канал. Всемирная сеть».

Описание: Каждую субботу зрители приглашаются на увлекательный вечер в кругу известных артистов, музыкантов, писателей — море положительных эмоций, интересных открытий и неожиданных признаний ждет вас в ток-шоу «Сегодня вечером». Отвлекитесь от насущных проблем и отдохните от тяжелой рабочей недели вместе с гостями студии.В этом выпуске: Программа «Сегодня вечером» возвращается кардинально обновленной: у шоу новые ведущие — Максим Галкин и Юлия Меньшова. Первыми гостями их яркой студии станут создатели, участники и Наставники шоу «Голос», которые отмечают начало шестого сезона проекта. Зрителей ждет свежий и увлекательный рассказ о закулисье главного вокального шоу страны. Впервые за одним столом соберутся все члены жюри «Голоса», и к ним присоединятся самые яркие участники проекта.Источник: Собственный рип.

Доп. информация: Рип чистый. Без посторонних надписей. Выкладывается как есть.


Качество: HDTV 1080i
Контейнер: TS
Видео кодек: H.264
Аудио кодек: AC3, MP2
Видео: AVC, 1920x1080 (16:9) 25.000 fps 9 132 Kbps, 0.176 bit/pixel
Аудио 1: AC3 48000Hz stereo 6 channels 384 Кбит/сек
Аудио 2: MPEG Audio 48000Hz stereo 2 channels 224 Кбит/сек
[b]Общее
Идентификатор : 1 (0x1)
Полное имя : G:\Раздачи\Программы, передачи, шоу, спектакли\Сегодня вечером\Сегодня вечером. Как снимается шоу «Голос» наставники раскрывают все карты (2017, HDTV 1080i, Ток-шоу, Эфир от 02.09.2017) (by Nokia5150).ts
Формат : MPEG-TS
Размер файла : 9,70 Гбайт
Продолжительность : 2 ч. 15 м.
Режим общего битрейта : Переменный
Общий поток : 10,3 Мбит/сек

Аудио #1
Идентификатор : 3701 (0xE75)
Идентификатор меню : 701 (0x2BD)
Формат : AC-3
Формат/Информация : Audio Coding 3
Параметр Endianness формата : Big
Идентификатор кодека : 6
Продолжительность : 2 ч. 15 м.
Вид битрейта : Постоянный
Битрейт : 384 Кбит/сек
Каналы : 6 каналов
Расположение каналов : Front: L C R, Side: L R, LFE
Частота : 48,0 КГц
Частота кадров : 31,250 кадров/сек (1536 SPF)
Битовая глубина : 16 бит
Метод сжатия : С потерями
Задержка видео : -120 мс.
Размер потока : 372 Мбайт (4%)
Язык : Russian
ServiceKind/String : Complete Main

Аудио #2
Идентификатор : 3702 (0xE76)
Идентификатор меню : 701 (0x2BD)
Формат : MPEG Audio
Версия формата : Version 1
Профиль формата : Layer 2
Идентификатор кодека : 3
Продолжительность : 2 ч. 15 м.
Вид битрейта : Постоянный
Битрейт : 224 Кбит/сек
Каналы : 2 канала
Частота : 48,0 КГц
Метод сжатия : С потерями
Задержка видео : -120 мс.
Размер потока : 217 Мбайт (2%)
Язык : Russian


Трекер:  [ 03-Сен-2017 04:12 ]

  

Скачать .torrent

Размер .torrent файла 25 KB


Размер: 9.7 GB
Хэш (hash) релиза: 878e825c7a5ba9df0bd254d8a11976ec51149d5e
Подписка на обновления:

Еще никто не оставлял запись к записи скачать торрент Сегодня вечером. Как снимается шоу «Голос»: наставники раскрывают все карты . Будь первым!

!Обратная связь