Скачать через торрент Ты супер! Танцы 01 выпуск HTB-HD 2017.09.02 Фильм бесплатно в хорошем качестве torrent

Скачивайте на UnionPeer.org фильмы через торрент без регистрации. Новинки кино в хорошем качестве через торрент. На UnionPeer.org можно скачать через торрент фильмы 2014 и 2015 годов. Самые новые фильмы.

Скачать торрент Ты супер! Танцы 01 выпуск HTB-HD 2017.09.02 бесплатно через .torrent фильм мультфильм сериал

Если у вас наблюдаются проблемы со скриншотами, переходом по ссылками, скачиванием торрентов - проблемы в блокировщике рекламы AdBlock. #хорошегоДня!


Статистика раздачи
Размер:  12.2 GB   |    Зарегистрирован:  2 месяца 19 дней   |    .torrent скачан:  5 раз   |   
Раздают:  1  
   
Загрузка...
 
Автор Сообщение

Galfimbul

avatar Galfimbul


Ты супер! Танцы 01 выпуск HTB-HD 2017.09.02

Дата/Год выпуска: 2017
Страна: Россия
Жанр: ТВ-Шоу
Продолжительность: 02:13:00
Перевод: Не требуется
Телеканал: HTB-HD
Описание: Проект «Ты супер! Танцы», который, поможет изменить к лучшему жизнь детей, оставшихся без попечения родителей. Детей, которые увлекаются танцами. Участие в проекте — это шанс заявить о себе на широкую аудиторию, возможность поработать с лучшими педагогами страны, получить незабываемые впечатления, завести новых друзей и познакомиться со своими кумирами.

Жюри: Егор Дружинин, Кристина Кретова, Евгений Папунаишвили, Анастасия Заворотнюк

Ведущий: Александр Олешко

Качество: HDTV
Разрешение видео/развертка: 1080i
Контейнер: TS
Видео кодек: H.264
Аудио кодек: AC3
Видео: H264; 1920x1080 (16:9); 25.000 fps; ~12.3 Mb/s
Аудио: MPEG Audio 48000Hz stereo 192 Кбит/сек
GeneralID : 1 (0x1)Complete name : F:\111---Смеяться разрешается\Ты супер! Танцы 01 выпуск HTB-HD 2017.09.02.tsFormat : MPEG-TSFile size : 12.2 GiBDuration : 2 h 13 minOverall bit rate mode : VariableOverall bit rate : 13.1 Mb/s

VideoID : 201 (0xC9)Menu ID : 2201 (0x899)Format : AVCFormat/Info : Advanced Video CodecFormat profile : High@L4Format settings, CABAC : YesFormat settings, ReFrames : 4 framesCodec ID : 27Duration : 2 h 13 minBit rate : 12.3 Mb/sWidth : 1 920 pixelsHeight : 1 080 pixelsDisplay aspect ratio : 16:9Frame rate : 25.000 FPSStandard : ComponentColor space : YUVChroma subsampling : 4:2:0Bit depth : 8 bitsScan type : InterlacedScan type, store method : Separated fieldsScan order : Top Field FirstBits/(Pixel*Frame) : 0.237Stream size : 11.4 GiB (94%)Color range : LimitedColor primaries : BT.709Transfer characteristics : BT.709Matrix coefficients : BT.709

AudioID : 301 (0x12D)Menu ID : 2201 (0x899)Format : MPEG AudioFormat version : Version 1Format profile : Layer 2Codec ID : 3Duration : 2 h 13 minBit rate mode : ConstantBit rate : 192 kb/sChannel(s) : 2 channelsSampling rate : 48.0 kHzCompression mode : LossyStream size : 183 MiB (1%)Language : Russian


Трекер:  [ 03-Сен-2017 03:12 ]

  

Скачать .torrent

Размер .torrent файла 61 KB


Размер: 12.2 GB
Хэш (hash) релиза: fe6effc5870ae26b34a3a0e5e459bffaab3d458f
Подписка на обновления:

Торренты, похожие на Ты супер! Танцы 01 выпуск HTB-HD 2017.09.02 скачать торрент

Форум Название Автор Размер S L Добавлен
Развлекательные телепередачи и шоу ·· Ты супер! Танцы 01 выпуск HTB-HD 2017.09.02 [2017, ТВ-Шоу, HDTVRip, 720p] Galfimbul 40893545103.81 GB 0 0 1504525824

14:50

4-Сен-17

Еще никто не оставлял запись к записи скачать торрент Ты супер! Танцы 01 выпуск HTB-HD 2017.09.02 . Будь первым!

!Обратная связь