Скачать через торрент Гримуар Зеро Zero kara Hajimeru Mahou no Sho бесплатно Аниме Все серии на русском torrent

Если у вас наблюдаются проблемы со скриншотами, переходом по ссылками, скачиванием торрентов - проблемы в блокировщике рекламы AdBlock. #хорошегоДня!


Статистика раздачи
Размер:  41.98 GB   |    Зарегистрирован:  2 месяца 18 дней   |    .torrent скачан:  2 раза   |   
Раздают:  1  
   
Загрузка...
 
Автор Сообщение

Galfimbul

avatar Galfimbul


Гримуар Зеро / Zero kara Hajimeru Mahou no Sho

Год выпуска: 2017
Страна: Япония
Жанр: фэнтези
Тип: TV
Продолжительность: 12 эп. по 24 мин.
Озвучка:

Двухголосая (муж/жен) от Sad_kit & Milirina (Anything-group)
Двухголосая (муж/жен) от Absurd & Ruri (Onibaku)
Двухголосая (муж/жен) от JAM & Trina_D (AniDub)

Русские субтитры: есть (отдельным файлом, формат .ass)
Перевод:

IgDar, Arjento [AOS]
Lulu, Aero, Helge [YakuSubStudio]

Хардсаб: НетРежиссер: Хиракава Тэцуо
Студия: White Fox

Описание: Ведьмы. Загадочные существа, сказками о которых пугают непослушных детей. Способные творить необъяснимое колдовство, они всегда были гонимы
Церковью и простым народом. Но что предпримут все эти люди, когда узнают о магии — силе пока неизвестной, но куда более опасной, чем ведьмовское колдовство?
Он — зверочеловек-наемник, который ненавидит ведьм и свою сущность. Она — ведьма, отправившаяся на поиски украденной книги. Его сокровенное желание — стать человеком. А ей нужна помощь... У этих двоих нет ничего общего. Но встретив друг друга, они объединяются ради достижения своих совсем непохожих целей.
Так рождается их недолговечный союз: зверочеловек, ненадолго позабывший о своей ненависти, и ведьма, по крупицам собирающая знания о неизвестном ей мире. Странная пара, которая еще не догадывается, что их встреча ознаменовала большие перемены...
© Readmanga

Качество: Blu-Ray Remux
Формат: MKV
Видео кодек: AVC
Аудио кодек: FLAC
Видео: 1920x1080 (16:9) 23,976 fps ~38,5 Mbps 8bit
Аудио:
Jap FLAC, 48000Hz, ~712 Kbps, 2ch
RUS 1-3 (ext) AC3, 48000Hz, ~192 Kbps, 2ch

Чаптеры присутствуют.
01. Ведьма и Зверолюд
02. Охота на ведьм
03. Дуэль
04. Дорога в Латетте
05. Колдуны Зеро
06. Тринадцать
07. Пласта, столица
08. Внучка Сорены
09. Воссоединение
10.
11.
12.
Общее
Уникальный идентификатор : 209316993825593430774843975982247245622 (0x9D78FC93A36CAF8C85CEB9FB0EE6F736)
Полное имя : Z:\Anime Release - working\Zero kara\[anti-raws]Zero kara Hajimeru Mahou no Sho ep.01[BDRemux].mkv
Формат : Matroska
Версия формата : Version 4 / Version 2
Размер файла : 6,64 Гбайт
Продолжительность : 23 м. 43 с.
Режим общего битрейта : Переменный
Общий поток : 40,1 Мбит/сек
Дата кодирования : UTC 2017-09-02 18:46:29
Программа кодирования : mkvmerge v15.0.0 ('Duel with the Devil') 64-bit
Библиотека кодирования : libebml v1.3.5 + libmatroska v1.4.5

Видео
Идентификатор : 2
Формат : AVC
Формат/Информация : Advanced Video Codec
Профиль формата : High@L4.1
Параметр CABAC формата : Да
Параметр ReFrames формата : 4 кадра
Идентификатор кодека : V_MPEG4/ISO/AVC
Продолжительность : 23 м. 43 с.
Вид битрейта : Переменный
Битрейт : 39,4 Мбит/сек
Максимальный битрейт : 40,0 Мбит/сек
Ширина : 1920 пикселей
Высота : 1080 пикселей
Соотношение сторон : 16:9
Режим частоты кадров : Постоянный
Частота кадров : 23,976 (24000/1001) кадра/сек
Цветовое пространство : YUV
Субдискретизация насыщенности : 4:2:0
Битовая глубина : 8 бит
Тип развёртки : Прогрессивная
Бит/(Пиксели*Кадры) : 0.792
Размер потока : 6,52 Гбайт (98%)
Default : Нет
Forced : Нет
Цветовой диапазон : Limited
Основные цвета : BT.709
Характеристики трансфера : BT.709
Коэффициенты матрицы : BT.709

Аудио
Идентификатор : 1
Формат : FLAC
Формат/Информация : Free Lossless Audio Codec
Идентификатор кодека : A_FLAC
Продолжительность : 23 м. 43 с.
Вид битрейта : Переменный
Битрейт : 711 Кбит/сек
Каналы : 2 канала
Расположение каналов : Front: L R
Частота : 48,0 КГц
Частота кадров : 11,719 кадров/сек (4096 spf)
Битовая глубина : 16 бит
Размер потока : 121 Мбайт (2%)
Библиотека кодирования : libFLAC 1.2.1 (UTC 2007-09-17)
Язык : Japanese
Default : Да
Forced : Нет

Меню
00:00:00.000 : en:00:00:00.000
00:03:03.975 : en:00:03:03.975
00:15:22.964 : en:00:15:22.964
00:22:00.986 : en:00:22:00.986
00:23:30.993 : en:00:23:30.993
...5388526
...5386969
--HDTVRip

...5443521
...5442620
--BDRip

Эта раздача - BDRemux


Трекер:  [ 03-Сен-2017 02:01 ]

  

Скачать .torrent

Размер .torrent файла 59 KB


Размер: 41.98 GB
Хэш (hash) релиза: 6426517225471e9d7ffa9222765d8a2d4377f2d3
Подписка на обновления:

Торренты, похожие на Гримуар Зеро Zero kara Hajimeru Mahou no Sho скачать торрент

Форум Название Автор Размер S L Добавлен
Аниме | HD Rips ·· Гримуар Зеро / Zero kara Hajimeru Mahou no Sho / Grimoire of Zero (Хиракава Тэцуо) [TV] [6 из 12] [без хардсаба] [RUS(ext), JAP+SUB] [2017, фэнтези, BDRip] [720p] Galfimbul 46248593874.31 GB 0 0 1503162142

20:02

19-Авг-17

Аниме | Rips ·· Гримуар Зеро / Zero kara Hajimeru Mahou no Sho / Grimoire of Zero [TV] [01-07 из 12] [Без хардсаба] [RUS(int), JAP+SUB] [2017, приключения, фэнтези, HDTVRip] [HWP] Galfimbul 17657475271.64 GB 0 0 1496963710

02:15

9-Июн-17

Аниме | Rips ·· Гримуар Зеро / Zero kara Hajimeru Mahou no Sho / Grimoire of Zero [TV] [01-04 из 12] [Без хардсаба] [RUS(int), JAP+SUB] [2017, приключения, фэнтези, HDTVRip] [HWP] Galfimbul 10622658961013 MB 0 0 1493920967

21:02

4-Май-17

Аниме | HD Rips ·· Книга магии для начинающих с нуля / Zero kara Hajimeru Mahou no Sho / Grimoire of Zero / Гримуар Зеро (Хиракава Тэцуо) [TV] [6 из 12] [без хардсаба] [JAP+SUB] [2017, приключения, фэнтези, BDRip] [1080p] Galfimbul 1413980244213.17 GB 0 0 1503363747

04:02

22-Авг-17

Аниме | HD Rips ·· Книга магии для начинающих с нуля / Zero kara Hajimeru Mahou no Sho / Grimoire of Zero / Гримуар Зеро [TV] [Без хардсаба] [01-09 из 12] [JAP+SUB] & [01-08 из 12] [RUS(ext)] [2017, приключения, фэнтези, HDTVRip] [720p] Galfimbul 37194140223.46 GB 2 0 1496965451

02:44

9-Июн-17

Аниме | HD Rips ·· Книга магии для начинающих с нуля / Zero kara Hajimeru Mahou no Sho / Grimoire of Zero / Гримуар Зеро [TV] [Без хардсаба] [01-05 из 12] [JAP+SUB] & [01-04 из 12] [RUS(ext)] [2017, приключения, фэнтези, HDTVRip] [720p] Galfimbul 20703293771.93 GB 0 0 1494275942

23:39

8-Май-17

Еще никто не оставлял запись к записи скачать торрент Гримуар Зеро Zero kara Hajimeru Mahou no Sho . Будь первым!

!Обратная связь