Скачать через торрент Заячья школа Rabbit school Фильм бесплатно в хорошем качестве torrent

Скачивайте на UnionPeer.org фильмы через торрент без регистрации. Новинки кино в хорошем качестве через торрент. На UnionPeer.org можно скачать через торрент фильмы 2014 и 2015 годов. Самые новые фильмы.

Скачать торрент Заячья школа Rabbit school бесплатно через .torrent фильм мультфильм сериал

Если у вас наблюдаются проблемы со скриншотами, переходом по ссылками, скачиванием торрентов - проблемы в блокировщике рекламы AdBlock. #хорошегоДня!


Статистика раздачи
Размер:  1.37 GB   |    Зарегистрирован:  16 дней   |    .torrent скачан:  33 раза   |   
Раздают:  1  
   
Загрузка...
 
Автор Сообщение

Galfimbul

avatar Galfimbul


Заячья школа / Rabbit school
«По уши в приключениях!»
Страна: Германия
Жанр: Мультфильм, семейный
Продолжительность: 01:12:33
Год выпуска: 2017
Перевод: Профессиональный (дублированный)
Русские субтитры: нетРежиссёр: Уте фон Мюнхов-ПольРоли озвучивали: Ноа Леви, Зента Бергер, Фридрих фон Тун, Дженни Мелина Витец, Макс Богут, Бен Боксберг, Юля Бёве, Дирк Петрик, Константин фон Ящерофф, Тим СэндерОписание: Макс, любитель городской суеты и молодежных развлечений, попадает туда, где ему совсем не место — в старомодную заячью школу. Но чем дольше он здесь находится, тем больше узнает о чудесном светлом празднике, ценности дружбы и собственном предназначении. Качество: WEB-DLRip
Формат: AVI
Видео: 704x384 (1.85:1), 25.000 fps, XviD build 73, 2308 Kbps, 0.34 bit/pixel
Аудио: 48 kHz, AC3 Dolby Digital, 3/2 (L,C,R,l,r) + LFE ch, 384 Kbps [iTunes]
Субтитры: отсутствуютРелиз от:
General Complete name : Downloads\Zayachya.skola.2017.WEB-DLRip.MegaPeer.avi Format : AVI Format/Info : Audio Video Interleave File size : 1.37 GiB Duration : 1h 12mn Overall bit rate : 2 701 Kbps Writing application : VirtualDubMod 1.5.10.2 (build 2540/release) Writing library : VirtualDubMod build 2540/release Video #0 ID : 0 Format : MPEG-4 Visual Format profile : Advanced Simple@L5 Format settings, BVOP : 1 Format settings, QPel : No Format settings, GMC : No warppoints Format settings, Matrix : Custom Codec ID : XVID Codec ID/Hint : XviD Duration : 1h 12mn Bit rate : 2 308 Kbps Width : 704 pixels Height : 384 pixels Display aspect ratio : 1.85:1 Frame rate : 25.000 fps Color space : YUV Chroma subsampling : 4:2:0 Bit depth : 8 bits Scan type : Progressive Compression mode : Lossy Bits/(Pixel*Frame) : 0.341 Stream size : 1.17 GiB (85%) Writing library : XviD 73 Audio #1 ID : 1 Format : AC-3 Format/Info : Audio Coding 3 Mode extension : CM (complete main) Format settings, Endianness : Big Codec ID : 2000 Duration : 1h 12mn Bit rate mode : Constant Bit rate : 384 Kbps Channel(s) : 6 channels Channel positions : Front: L C R, Side: L R, LFE Sampling rate : 48.0 KHz Bit depth : 16 bits Compression mode : Lossy Stream size : 199 MiB (14%) Alignment : Split accross interleaves Interleave, duration : 40 ms (1.00 video frame) Interleave, preload duration : 500 ms


Трекер:  [ 02-Сен-2017 18:36 ]

  

Скачать .torrent

Размер .torrent файла 14 KB


Размер: 1.37 GB
Хэш (hash) релиза: e6da0524a096faad492108995df9cc6aef7acee7
Подписка на обновления:

Еще никто не оставлял запись к записи скачать торрент Заячья школа Rabbit school . Будь первым!

!Обратная связь