Скачать через торрент Своя игра Фильм бесплатно в хорошем качестве torrent

Скачивайте на UnionPeer.org фильмы через торрент без регистрации. Новинки кино в хорошем качестве через торрент. На UnionPeer.org можно скачать через торрент фильмы 2014 и 2015 годов. Самые новые фильмы.

Скачать торрент Своя игра бесплатно через .torrent фильм мультфильм сериал

Если у вас наблюдаются проблемы со скриншотами, переходом по ссылками, скачиванием торрентов - проблемы в блокировщике рекламы AdBlock. #хорошегоДня!


Статистика раздачи
Размер:  3.37 GB   |    Зарегистрирован:  19 дней   |    .torrent скачан:  3 раза   |   
Раздают:  1  
   
Загрузка...
 
Автор Сообщение

Galfimbul

avatar Galfimbul


Своя игра (Эфир от 02.09.2017)

Дата/Год выпуска: 2017
Страна: Россия
Жанр: Интеллектуальное шоу
Продолжительность: 00:40:45
Перевод: Не требуется
Ведущий: Петр Кулешов

Описание: «Своя игра» — российский вариант всемирно известной телеигры «Jeopardy!». Это одна из немногих по-настоящему интеллектуальных игр на российском телевидении.
В каждом выпуске программы место за игровыми пультами занимают три интеллектуала. Им предстоит отвечать на вопросы из различных областей знаний. Каждый вопрос имеет свою стоимость. Если участник дает верный ответ, сумма переходит к нему на счет, если ошибается — очки снимаются. По ходу игры лидеры могут меняться несколько раз, ведь стремящиеся к победе люди готовы рисковать, лишь бы вырваться вперед.
«Своя игра» — отличный способ проверить свои знания, открыть для себя что-то новое и понаблюдать за азартной борьбой интеллектуалов!

Качество: HDTV 1080i
Контейнер: TS
Видео кодек: H.264
Аудио кодек: MP2
Видео: H264; 1920x1080 (16:9); 25.000 fps; ~11100 Kbps
Аудио: MPEG Audio 48000Hz stereo 192 Кбит/сек
GeneralID : 1 (0x1)Complete name : G:\Своя игра 02.09.2017.tsFormat : MPEG-TSFile size : 3.37 GiBDuration : 40 min 45 sOverall bit rate mode : VariableOverall bit rate : 11.8 Mb/s

VideoID : 2104 (0x838)Menu ID : 104 (0x68)Format : AVCFormat/Info : Advanced Video CodecFormat profile : High@L4Format settings, CABAC : YesFormat settings, RefFrames : 4 framesCodec ID : 27Duration : 40 min 44 sBit rate : 11.1 Mb/sWidth : 1 920 pixelsHeight : 1 080 pixelsDisplay aspect ratio : 16:9Frame rate : 25.000 FPSStandard : ComponentColor space : YUVChroma subsampling : 4:2:0Bit depth : 8 bitsScan type : InterlacedScan type, store method : Separated fieldsScan order : Top Field FirstBits/(Pixel*Frame) : 0.214Stream size : 3.15 GiB (93%)Color range : LimitedColor primaries : BT.709Transfer characteristics : BT.709Matrix coefficients : BT.709

AudioID : 3104 (0xC20)Menu ID : 104 (0x68)Format : MPEG AudioFormat version : Version 1Format profile : Layer 2Codec ID : 3Duration : 40 min 45 sBit rate mode : ConstantBit rate : 192 kb/sChannel(s) : 2 channelsSampling rate : 48.0 kHzCompression mode : LossyDelay relative to video : -80 msStream size : 56.0 MiB (2%)Language : Russian


Трекер:  [ 02-Сен-2017 16:42 ]

  

Скачать .torrent

Размер .torrent файла 17 KB


Размер: 3.37 GB
Хэш (hash) релиза: 4c5b8ceca0ca570ab2e2a8c340dbc6d81521ee60
Подписка на обновления:

Торренты, похожие на Своя игра скачать торрент

Форум Название Автор Размер S L Добавлен
Развлекательные телепередачи и шоу ·· Своя игра (эфир от 07.03.2015) [Интеллектуальное шоу, игра, SATRip] Galfimbul 651085824621 MB 0 0 1425717201

11:33

7-Мар-15

Развлекательные телепередачи и шоу ·· Своя игра – 2017 год (Юрий Первушин) [2017, Интеллектуальная викторина/телеигра, HDTVRip, Web-DLRip] Galfimbul 91334804688.51 GB 0 0 1505747771

18:16

18-Сен-17

Развлекательные телепередачи и шоу ·· Своя игра (Эфир от 17.09.2017) [2017, Интеллектуальное шоу, HDTV 1080i] Galfimbul 27781530802.59 GB 0 0 1505656039

16:47

17-Сен-17

Развлекательные телепередачи и шоу ·· Своя игра (Эфир от 16.09.2017) [2017, Интеллектуальное шоу, HDTV 1080i] Galfimbul 30982661322.89 GB 0 0 1505575052

18:17

16-Сен-17

Развлекательные телепередачи и шоу ·· Своя игра (Эфир от 10.09.2017) [2017, Интеллектуальное шоу, HDTV 1080i] Galfimbul 28703106802.67 GB 0 0 1505049641

16:20

10-Сен-17

Развлекательные телепередачи и шоу ·· Своя игра (Эфир от 03.09.2017) [2017, Интеллектуальное шоу, HDTV 1080i] Galfimbul 29908058962.79 GB 0 0 1504446311

16:45

3-Сен-17

Развлекательные телепередачи и шоу ·· Своя игра - Кубок Вызова-4 (Юрий Первушин) (73 выпуска из 90) [2003, Интеллектуальная викторина/телеигра, TVRip/VHSRip] Galfimbul 1836813245017.11 GB 0 0 1503436491

00:14

23-Авг-17

Развлекательные телепередачи и шоу ·· Своя игра (Эфир от 25.06.2017) [2017, Интеллектуальное шоу, HDTV 1080i] Galfimbul 27637028362.57 GB 0 0 1498403815

18:16

25-Июн-17

Развлекательные телепередачи и шоу ·· Своя игра (Эфир от 24.06.2017) [2017, Интеллектуальное шоу, HDTV 1080i] Galfimbul 31872448402.97 GB 0 0 1498311969

16:46

24-Июн-17

Развлекательные телепередачи и шоу ·· Своя игра (Эфир от 18.06.2017) [2017, Интеллектуальное шоу, HDTV 1080i] Galfimbul 33451659683.12 GB 0 0 1497840339

05:45

19-Июн-17

Развлекательные телепередачи и шоу ·· Своя игра (Эфир от 17.06.2017) [2017, Интеллектуальное шоу, HDTV 1080i] Galfimbul 28243762642.63 GB 0 0 1497708858

17:14

17-Июн-17

Развлекательные телепередачи и шоу ·· Своя игра (Эфир от 11.06.2017) [2017, Интеллектуальное шоу, HDTV 1080i] Galfimbul 29276262402.73 GB 0 0 1497188704

16:45

11-Июн-17

Развлекательные телепередачи и шоу ·· Своя игра (Эфир от 10.06.2017) [2017, Интеллектуальное шоу, HDTV 1080i] Galfimbul 33347742683.11 GB 0 0 1497104221

17:17

10-Июн-17

Развлекательные телепередачи и шоу ·· Своя игра (Эфир от 28.01.2017) [2017, Интеллектуальное шоу, HDTV 1080i] Galfimbul 39580931563.69 GB 0 0 1497042311

00:05

10-Июн-17

Развлекательные телепередачи и шоу ·· Своя игра (Эфир от 29.01.2017) [2017, Интеллектуальное шоу, HDTV 1080i] Galfimbul 40783808203.8 GB 0 0 1497042302

00:05

10-Июн-17

Развлекательные телепередачи и шоу ·· Своя игра (Эфир от 04.02.2017) [2017, Интеллектуальное шоу, HDTV 1080i] Galfimbul 42219406283.93 GB 0 0 1497042284

00:04

10-Июн-17

Развлекательные телепередачи и шоу ·· Своя игра (Эфир от 05.02.2017) [2017, Интеллектуальное шоу, HDTV 1080i] Galfimbul 43125978004.02 GB 0 0 1497042274

00:04

10-Июн-17

Развлекательные телепередачи и шоу ·· Своя игра (Эфир от 27.05.2017) [2017, Интеллектуальное шоу, HDTV 1080i] Galfimbul 27402252082.55 GB 0 0 1497042205

00:03

10-Июн-17

Развлекательные телепередачи и шоу ·· Своя игра (Эфир от 28.05.2017) [2017, Интеллектуальное шоу, HDTV 1080i] Galfimbul 27921393402.6 GB 0 0 1497042183

00:03

10-Июн-17

Еще никто не оставлял запись к записи скачать торрент Своя игра . Будь первым!

!Обратная связь