Скачать через торрент Планета людей People: A Musical Celebration Фильм бесплатно в хорошем качестве torrent

Скачивайте на UnionPeer.org фильмы через торрент без регистрации. Новинки кино в хорошем качестве через торрент. На UnionPeer.org можно скачать через торрент фильмы 2014 и 2015 годов. Самые новые фильмы.

Скачать торрент Планета людей People: A Musical Celebration бесплатно через .torrent фильм мультфильм сериал

Если у вас наблюдаются проблемы со скриншотами, переходом по ссылками, скачиванием торрентов - проблемы в блокировщике рекламы AdBlock. #хорошегоДня!


Статистика раздачи
Размер:  522 MB   |    Зарегистрирован:  2 месяца 21 день   |    .torrent скачан:  4 раза   |   
Раздают:  1  
   
Загрузка...
 
Автор Сообщение

Galfimbul

avatar Galfimbul


Планета людей / People: A Musical Celebration
Страна: США, Россия
Жанр: музыкальный мультфильм, семейный
Год выпуска: 1995
Продолжительность: 00:48:47Перевод: Профессиональный (двухголосый закадровый) + перевод песен субтитрами
Субтитры: русские (только на песни)Режиссеры: Владлен Барбэ, Алексей Алексеев, Джошуа М. Грин / Joshua M. Greene, Светлана Гроссу, Олег Кузовков, Дмитрий Наумов, Игорь Вейштагин, Валерий Жирнов
Роли озвучивали: Хьюм Кронин, Саша Гроним, Джеймс Эрл Джонс, Даи Даи Минг, Офелия ЭссьенОписание: По мотивам книги Питера Спайера. Дедушка с любимой внучкой отправляется в волшебное путешествие, открывая для себя удивительный мир людей. Ребенок с радостью узнает, что самое красивое зрелище на свете - это наша планета, и понимает, что человек - самая интересная загадка.Доп. информация: Исходный WEB-DL и VHS кассету предоставил truf666. Звук с кассеты оцифровал bora86bora, синхронизировал под WEB-DL xfiles. Спасибо всем участникам процесса! <img class="smile" src="//static.t-ru.org/smiles/icon_smile.gif" alt=""> | Релиз: Семпл: http://sendfile.su/1359081Тип релиза: WEB-DL 480p
Формат: MKV

Видео: 640x480 (4:3), 29.970 fps, AVC, ~1019 Kbps, 0.111 bits/pixel
Аудио #1: Русский, 48.0 KHz, AC3, 2 ch, 224 Kbps
Аудио #2: English, 48.0 KHz, AC3+, 2 ch, 224 Kbps
GeneralUnique ID : 243022835915437523812800991496815095066 (0xB6D47EE546298B8A81EF340A52D5AD1A)Complete name : People.A.Musical.Celebration.1995.WEB-DL.480p-RUTRACKER.mkvFormat : MatroskaFormat version : Version 4 / Version 2File size : 522 MiBDuration : 48 min 47 sOverall bit rate mode : VariableOverall bit rate : 1 497 kb/sMovie name : People: A Musical Celebration 1995 WEB-DL 480p RUTRACKEREncoded date : UTC 2017-09-02 12:31:08Writing application : mkvmerge v8.3.0 ('Over the Horizon') 64bitWriting library : libebml v1.3.1 + libmatroska v1.4.2

VideoID : 1Format : AVCFormat/Info : Advanced Video CodecFormat profile : Main@L3Format settings, CABAC : YesFormat settings, RefFrames : 5 framesCodec ID : V_MPEG4/ISO/AVCDuration : 48 min 47 sBit rate mode : VariableBit rate : 1 019 kb/sMaximum bit rate : 1 800 kb/sWidth : 640 pixelsHeight : 480 pixelsDisplay aspect ratio : 4:3Frame rate mode : ConstantFrame rate : 29.970 (30000/1001) FPSColor space : YUVChroma subsampling : 4:2:0Bit depth : 8 bitsScan type : ProgressiveBits/(Pixel*Frame) : 0.111Stream size : 356 MiB (68%)Writing library : x264 core 148 r2623 d5b2374Encoding settings : cabac=1 / ref=5 / deblock=1:-1:-1 / analyse=0x1:0x131 / me=umh / subme=10 / psy=1 / psy_rd=1.00:0.15 / mixed_ref=1 / me_range=24 / chroma_me=1 / trellis=2 / 8x8dct=0 / cqm=0 / deadzone=21,11 / fast_pskip=1 / chroma_qp_offset=-3 / threads=15 / lookahead_threads=2 / sliced_threads=0 / nr=150 / decimate=1 / interlaced=0 / bluray_compat=0 / constrained_intra=0 / bframes=8 / b_pyramid=2 / b_adapt=2 / b_bias=0 / direct=3 / weightb=1 / open_gop=0 / weightp=2 / keyint=150 / keyint_min=76 / scenecut=40 / intra_refresh=0 / rc_lookahead=150 / rc=crf / mbtree=1 / crf=22.0 / qcomp=0.60 / qpmin=0 / qpmax=69 / qpstep=4 / vbv_maxrate=1800 / vbv_bufsize=7000 / crf_max=0.0 / nal_hrd=vbr / filler=0 / ip_ratio=1.40 / aq=3:1.00Language : EnglishDefault : YesForced : NoColor range : LimitedColor primaries : BT.709Transfer characteristics : BT.709Matrix coefficients : BT.709

Audio #1ID : 2Format : AC-3Format/Info : Audio Coding 3Format settings, Endianness : BigCodec ID : A_AC3Duration : 48 min 47 sBit rate mode : ConstantBit rate : 224 kb/sChannel(s) : 2 channelsChannel positions : Front: L RSampling rate : 48.0 kHzFrame rate : 31.250 FPS (1536 SPF)Bit depth : 16 bitsCompression mode : LossyStream size : 78.2 MiB (15%)Language : RussianService kind : Complete MainDefault : YesForced : No

Audio #2ID : 3Format : E-AC-3Format/Info : Enhanced Audio Coding 3Format settings, Endianness : BigCodec ID : A_EAC3Duration : 48 min 47 sBit rate mode : ConstantBit rate : 224 kb/sChannel(s) : 2 channelsChannel positions : Front: L RSampling rate : 48.0 kHzFrame rate : 187.500 FPS (256 SPF)Compression mode : LossyStream size : 78.2 MiB (15%)Language : EnglishService kind : Complete MainDefault : NoForced : No

TextID : 4Format : UTF-8Codec ID : S_TEXT/UTF8Codec ID/Info : UTF-8 Plain TextTitle : ForcedLanguage : RussianDefault : YesForced : No


Трекер:  [ 02-Сен-2017 16:06 ]

  

Скачать .torrent

Размер .torrent файла 10 KB


Размер: 522 MB
Хэш (hash) релиза: 5b4a382f0ac7494c1a0d767128615354895f0bac
Подписка на обновления:

Еще никто не оставлял запись к записи скачать торрент Планета людей People: A Musical Celebration . Будь первым!

!Обратная связь