: Alien: Covenant torrent

, , - AdBlock. #!


4.35 GB   |    :  2 22    |    .torrent :  25    |   
1  
   
...
 

Galfimbul

avatar Galfimbul


: / Alien: Covenant


6.108 / 10 6.70 / 10
: 2017
: , , , ,
: , ,
: 02:02:03

: (Blu-ray EUR)
:
C: ,
:
: , , Β
: , ,
:
:
: , ,
:
: , , , , , , , , ,

: $97 000 000
: $74 207 616
: + $158 794 273 = $233 056 304
: $7 528 949

: 4 2017
(): 18 2017, û

: , , , , , . , . : BDRemux (BlueBird)
: BDRip
: HD (720p)
: M4V
: H.264, 1280x536, 2.40:1, 3 500 Kbps, 23.976 (24000/1001) fps

1: / (Blu-ray EUR), AAC / 2.0 / 160 Kbps / 48.0 KHz
2: / , AAC / 2.0 / 160 Kbps / 48.0 KHz
3: / (Blu-ray EUR), AC-3 / 5.1 / 640 Kbps / 48.0 KHz
4: / , AC-3 / 5.1 / 640 Kbps / 48.0 KHz

1:
2:
Sort Name: Alien: Covenant
XID: Apple:vendor_id:2017-695548
contentID: 1231319469
Copyright: 2017 Twentieth Century Fox Film Corporation. All rights reserved.
Screenwriters: , , Β
Producers: , ,
Director:
Cast: , , , , , , , , ,
Studio: 20th Century Fox
Rating Annotation: Rated R for sci-fi violence, bloody images, language and some sexuality/nudity.
Rating: 5
Long Description: , , , , , - . - , .
Description: , , , , , - .
Release Date: 2017-05-04T08:00:00Z
Genre: Sci-Fi & Fantasy
Artist: Ridley Scott
Name: Alien: Covenant
General
Complete name : /Users/imac/HandBrake/Alien- Covenant (720p HD).m4v
Format : MPEG-4
Codec ID : M4V (M4V /M4A /mp42/isom)
File size : 4.35 GiB
Duration : 2h 2mn
Overall bit rate mode : Variable
Overall bit rate : 5 105 Kbps
Movie name : Alien: Covenant
Performer : Ridley Scott
Director :
Actor : / / / / / / / / /
Screenplay by : / / Β
Producer : / /
Production studio : 20th Century Fox
Genre : Sci-Fi & Fantasy
ContentType : Short Film
Description : , , , , , - .
Recorded date : UTC 2017-05-04 08:00:00
Encoded date : UTC 2017-09-02 11:49:19
Tagged date : UTC 2017-09-02 12:00:08
Copyright : 2017 Twentieth Century Fox Film Corporation. All rights reserved.
Cover : Yes
Rating : None
Title/Sort : Alien: Covenant
LongDescription : , , , , , - . - , .
HDVideo : Yes
AppleStoreCatalogID : 1231319469
Vendor : Apple:vendor_id:2017-695548
ContentRating : mpaa|R|400|Rated R for sci-fi violence, bloody images, language and some sexuality/nudity.

Video #1
ID : 1
Format : AVC
Format/Info : Advanced Video Codec
Format profile : High@L3.1
Format settings, CABAC : No
Format settings, ReFrames : 3 frames
Codec ID : avc1
Codec ID/Info : Advanced Video Coding
Duration : 2h 2mn
Source duration : 2h 2mn
Bit rate : 3 500 Kbps
Width : 1 280 pixels
Height : 536 pixels
Display aspect ratio : 2.40:1
Frame rate mode : Variable
Frame rate : 23.976 (24000/1001) fps
Minimum frame rate : 23.974 fps
Maximum frame rate : 23.981 fps
Color space : YUV
Chroma subsampling : 4:2:0
Bit depth : 8 bits
Scan type : Progressive
Bits/(Pixel*Frame) : 0.213
Stream size : 2.98 GiB (69%)
Source stream size : 2.98 GiB (69%)
Title : Main Program
Writing library : x264 core 148 r2708 86b7198
Encoding settings : cabac=0 / ref=3 / deblock=1:-3:-3 / analyse=0x3:0x113 / me=umh / subme=9 / psy=1 / psy_rd=1.00:0.15 / mixed_ref=1 / me_range=32 / chroma_me=1 / trellis=0 / 8x8dct=1 / cqm=0 / deadzone=21,11 / fast_pskip=0 / chroma_qp_offset=-2 / threads=17 / lookahead_threads=1 / sliced_threads=0 / nr=0 / decimate=0 / interlaced=0 / bluray_compat=0 / constrained_intra=0 / bframes=3 / b_pyramid=0 / b_adapt=2 / b_bias=0 / direct=1 / weightb=0 / open_gop=0 / weightp=0 / keyint=240 / keyint_min=24 / scenecut=40 / intra_refresh=0 / rc_lookahead=40 / rc=2pass / mbtree=1 / bitrate=3500 / ratetol=1.0 / qcomp=0.65 / qpmin=0 / qpmax=69 / qpstep=4 / cplxblur=20.0 / qblur=0.5 / vbv_maxrate=9500 / vbv_bufsize=9500 / nal_hrd=none / filler=0 / ip_ratio=1.40 / aq=1:1.10
Language : English
Encoded date : UTC 2017-09-02 11:49:20
Tagged date : UTC 2017-09-02 11:49:29
Color range : Limited
Color primaries : BT.709
Transfer characteristics : BT.709
Matrix coefficients : BT.709
Menus : 8,9

Video #2
ID : 9
Format : JPEG
Codec ID : jpeg
Duration : 2h 2mn
Bit rate mode : Variable
Bit rate : 718 bps
Width : 640 pixels
Height : 268 pixels
Display aspect ratio : 2.40:1
Frame rate mode : Variable
Frame rate : 0.003 fps
Minimum frame rate : 0.002 fps
Maximum frame rate : 0.005 fps
Color space : YUV
Chroma subsampling : 4:2:0
Bit depth : 8 bits
Compression mode : Lossy
Bits/(Pixel*Frame) : 1.395
Stream size : 702 KiB (0%)
Title : Chapter Images
Language : English
Default : No
Encoded date : UTC 2017-09-02 11:50:26
Tagged date : UTC 2017-09-02 11:50:26
Menu For : 1

Audio #1
ID : 2
Format : AAC
Format/Info : Advanced Audio Codec
Format profile : LC
Codec ID : 40
Duration : 2h 2mn
Bit rate mode : Variable
Bit rate : 158 Kbps
Maximum bit rate : 235 Kbps
Channel(s) : 2 channels
Channel positions : Front: L R
Sampling rate : 48.0 KHz
Frame rate : 46.875 fps (1024 SPF)
Compression mode : Lossy
Stream size : 138 MiB (3%)
Title : Russian Stereo
Language : Russian
Default : Yes
Alternate group : 1
Encoded date : UTC 2017-09-02 11:49:20
Tagged date : UTC 2017-09-02 11:50:20
Fallback From : 4

Audio #2
ID : 3
Format : AAC
Format/Info : Advanced Audio Codec
Format profile : LC
Codec ID : 40
Duration : 2h 2mn
Bit rate mode : Variable
Bit rate : 158 Kbps
Maximum bit rate : 243 Kbps
Channel(s) : 2 channels
Channel positions : Front: L R
Sampling rate : 48.0 KHz
Frame rate : 46.875 fps (1024 SPF)
Compression mode : Lossy
Stream size : 138 MiB (3%)
Title : English Stereo
Language : English
Default : No
Alternate group : 1
Encoded date : UTC 2017-09-02 11:49:20
Tagged date : UTC 2017-09-02 11:50:20
Fallback From : 5

Audio #3
ID : 4
Format : AC-3
Format/Info : Audio Coding 3
Format settings, Endianness : Big
Codec ID : ac-3
Duration : 2h 2mn
Bit rate mode : Constant
Bit rate : 640 Kbps
Channel(s) : 6 channels
Channel positions : Front: L C R, Side: L R, LFE
Sampling rate : 48.0 KHz
Frame rate : 31.250 fps (1536 SPF)
Bit depth : 16 bits
Compression mode : Lossy
Stream size : 559 MiB (13%)
Title : Russian DD 5.1
Language : Russian
Service kind : Complete Main
Default : Inherited From: 2
Alternate group : 1
Encoded date : UTC 2017-09-02 11:49:20
Tagged date : UTC 2017-09-02 11:50:20
Fallback To : 2

Audio #4
ID : 5
Format : AC-3
Format/Info : Audio Coding 3
Format settings, Endianness : Big
Codec ID : ac-3
Duration : 2h 2mn
Bit rate mode : Constant
Bit rate : 640 Kbps
Channel(s) : 6 channels
Channel positions : Front: L C R, Side: L R, LFE
Sampling rate : 48.0 KHz
Frame rate : 31.250 fps (1536 SPF)
Bit depth : 16 bits
Compression mode : Lossy
Stream size : 559 MiB (13%)
Title : English DD 5.1
Language : English
Service kind : Complete Main
Default : No
Alternate group : 1
Encoded date : UTC 2017-09-02 11:49:20
Tagged date : UTC 2017-09-02 11:50:20
Fallback To : 3

Text #1
ID : 6
Format : Timed Text
Muxing mode : sbtl
Codec ID : tx3g
Duration : 1h 55mn
Bit rate mode : Variable
Bit rate : 82 bps
Stream size : 69.4 KiB (0%)
Title : Russian full
Language : Russian
Default : Yes
Forced : No
Alternate group : 2
Encoded date : UTC 2017-09-02 11:49:20
Tagged date : UTC 2017-09-02 11:50:17

Text #2
ID : 7
Format : Timed Text
Muxing mode : sbtl
Codec ID : tx3g
Duration : 1h 55mn
Bit rate mode : Variable
Bit rate : 54 bps
Stream size : 45.8 KiB (0%)
Title : English full
Language : English
Default : No
Forced : No
Alternate group : 2
Encoded date : UTC 2017-09-02 11:49:20
Tagged date : UTC 2017-09-02 11:50:17

Menu #1
00:00:00.000 : Chapter 01
00:04:47.662 : Chapter 02
00:13:07.495 : Chapter 03
00:18:11.924 : Chapter 04
00:22:46.448 : Chapter 05
00:27:51.169 : Chapter 06
00:33:12.907 : Chapter 07
00:37:18.736 : Chapter 08
00:42:19.912 : Chapter 09
00:47:43.694 : Chapter 10
00:52:04.371 : Chapter 11
00:55:56.269 : Chapter 12
01:00:17.447 : Chapter 13
01:06:20.643 : Chapter 14
01:11:25.030 : Chapter 15
01:16:35.883 : Chapter 16
01:21:10.032 : Chapter 17
01:28:18.793 : Chapter 18
01:31:21.559 : Chapter 19
01:34:52.436 : Chapter 20
01:39:23.666 : Chapter 21
01:43:35.876 : Chapter 22
01:50:49.309 : Chapter 23
01:55:27.754 : Chapter 24

Menu #2
ID : 8
Codec ID : text
Duration : 2h 2mn
Language : English
Encoded date : UTC 2017-09-02 11:50:21
Tagged date : UTC 2017-09-02 11:50:21
Bit rate mode : CBR
Menu For : 1
00:00:00.000 : Chapter 01
00:04:47.662 : Chapter 02
00:13:07.495 : Chapter 03
00:18:11.924 : Chapter 04
00:22:46.448 : Chapter 05
00:27:51.169 : Chapter 06
00:33:12.907 : Chapter 07
00:37:18.736 : Chapter 08
00:42:19.912 : Chapter 09
00:47:43.694 : Chapter 10
00:52:04.371 : Chapter 11
00:55:56.269 : Chapter 12
01:00:17.447 : Chapter 13
01:06:20.643 : Chapter 14
01:11:25.030 : Chapter 15
01:16:35.883 : Chapter 16
01:21:10.032 : Chapter 17
01:28:18.793 : Chapter 18
01:31:21.559 : Chapter 19
01:34:52.436 : Chapter 20
01:39:23.666 : Chapter 21
01:43:35.876 : Chapter 22
01:50:49.309 : Chapter 23
01:55:27.754 : Chapter 24
x264 [info]: frame I:1845 Avg QP:15.15 size:103708
x264 [info]: frame P:64511 Avg QP:17.49 size: 31153
x264 [info]: frame B:109228 Avg QP:19.53 size: 9170
x264 [info]: consecutive B-frames: 5.0% 25.0% 33.8% 36.3%
x264 [info]: mb I I16..4: 5.0% 61.8% 33.2%
x264 [info]: mb P I16..4: 1.4% 6.1% 3.0% P16..4: 49.1% 24.5% 11.1% 0.0% 0.0% skip: 4.9%
x264 [info]: mb B I16..4: 0.1% 0.8% 0.6% B16..8: 45.9% 10.3% 1.6% direct: 3.9% skip:36.8% L0:41.3% L1:52.2% BI: 6.5%
x264 [info]: 8x8 transform intra:58.3% inter:44.7%
x264 [info]: coded y,uvDC,uvAC intra: 86.4% 71.0% 45.7% inter: 25.1% 15.3% 7.0%
x264 [info]: i16 v,h,dc,p: 35% 15% 13% 36%
x264 [info]: i8 v,h,dc,ddl,ddr,vr,hd,vl,hu: 10% 7% 6% 12% 16% 14% 14% 11% 11%
x264 [info]: i4 v,h,dc,ddl,ddr,vr,hd,vl,hu: 10% 8% 4% 13% 17% 15% 14% 10% 10%
x264 [info]: i8c dc,h,v,p: 54% 18% 19% 9%
x264 [info]: ref P L0: 70.4% 17.1% 12.5%
x264 [info]: ref B L0: 77.9% 22.1%
x264 [info]: kb/s:3498.59
Apple TV, iPad, iPhone, iPod Touch.
Windows VLC media player

 ·  , , FAQ-
:  [ 02--2017 15:42 ]

  

.torrent

.torrent 44 KB


: 4.35 GB
(hash) : 7bab86cff528d71a243fb15f00bd167b74a0b313
··
...

: Alien: Covenant . !

!