[ATV3] : Alien: Covenant torrent

, , - AdBlock. #!


8.19 GB   |    :  22    |    .torrent :  20    |   
1  
   
...
 

Galfimbul

avatar Galfimbul


: / Alien: Covenant


6.108 / 10 6.70 / 10
: 2017
: , , , ,
: , ,
: 02:02:03

: (Blu-ray EUR)
:
C: ,
:
: , , Β
: , ,
:
:
: , ,
:
: , , , , , , , , ,

: $97 000 000
: $74 207 616
: + $158 794 273 = $233 056 304
: $7 528 949

: 4 2017
(): 18 2017, û

: , , , , , . , . : BDRemux (BlueBird)
: BDRip
: HD (1080p)
: M4V
: H.264, 1920x800, 2.40:1, 8 000 Kbps, 23.976 (24000/1001) fps

1: / (Blu-ray EUR), AAC / 2.0 / 160 Kbps / 48.0 KHz
2: / , AAC / 2.0 / 160 Kbps / 48.0 KHz
3: / (Blu-ray EUR), AC-3 / 5.1 / 640 Kbps / 48.0 KHz
4: / , AC-3 / 5.1 / 640 Kbps / 48.0 KHz

1:
2:
Sort Name: Alien: Covenant
XID: Apple:vendor_id:2017-695548
contentID: 1231319469
Copyright: 2017 Twentieth Century Fox Film Corporation. All rights reserved.
Screenwriters: , , Β
Producers: , ,
Director:
Cast: , , , , , , , , ,
Studio: 20th Century Fox
Rating Annotation: Rated R for sci-fi violence, bloody images, language and some sexuality/nudity.
Rating: 5
Long Description: , , , , , - . - , .
Description: , , , , , - .
Release Date: 2017-05-04T08:00:00Z
Genre: Sci-Fi & Fantasy
Artist: Ridley Scott
Name: Alien: Covenant
General
Complete name : /Users/imac/HandBrake/Alien- Covenant (1080p HD).m4v
Format : MPEG-4
Codec ID : M4V (M4V /M4A /mp42/isom)
File size : 8.19 GiB
Duration : 2h 2mn
Overall bit rate mode : Variable
Overall bit rate : 9 601 Kbps
Movie name : Alien: Covenant
Performer : Ridley Scott
Director :
Actor : / / / / / / / / /
Screenplay by : / / Β
Producer : / /
Production studio : 20th Century Fox
Genre : Sci-Fi & Fantasy
ContentType : Short Film
Description : , , , , , - .
Recorded date : UTC 2017-05-04 08:00:00
Encoded date : UTC 2017-09-02 11:13:26
Tagged date : UTC 2017-09-02 11:16:35
Copyright : 2017 Twentieth Century Fox Film Corporation. All rights reserved.
Cover : Yes
Rating : None
Title/Sort : Alien: Covenant
LongDescription : , , , , , - . - , .
AppleStoreCatalogID : 1231319469
Vendor : Apple:vendor_id:2017-695548
ContentRating : mpaa|R|400|Rated R for sci-fi violence, bloody images, language and some sexuality/nudity.

Video #1
ID : 1
Format : AVC
Format/Info : Advanced Video Codec
Format profile : High@L4
Format settings, CABAC : Yes
Format settings, ReFrames : 4 frames
Codec ID : avc1
Codec ID/Info : Advanced Video Coding
Duration : 2h 2mn
Source duration : 2h 2mn
Bit rate : 8 000 Kbps
Width : 1 920 pixels
Height : 800 pixels
Display aspect ratio : 2.40:1
Frame rate mode : Variable
Frame rate : 23.976 (24000/1001) fps
Minimum frame rate : 23.974 fps
Maximum frame rate : 23.981 fps
Color space : YUV
Chroma subsampling : 4:2:0
Bit depth : 8 bits
Scan type : Progressive
Bits/(Pixel*Frame) : 0.217
Stream size : 6.82 GiB (83%)
Source stream size : 6.82 GiB (83%)
Title : Main Program
Writing library : x264 core 148 r2708 86b7198
Encoding settings : cabac=1 / ref=4 / deblock=1:-2:-2 / analyse=0x3:0x133 / me=umh / subme=10 / psy=1 / psy_rd=1.00:0.15 / mixed_ref=1 / me_range=32 / chroma_me=1 / trellis=2 / 8x8dct=1 / cqm=0 / deadzone=21,11 / fast_pskip=1 / chroma_qp_offset=-3 / threads=25 / lookahead_threads=6 / sliced_threads=0 / nr=0 / decimate=0 / interlaced=0 / bluray_compat=0 / constrained_intra=0 / bframes=16 / b_pyramid=2 / b_adapt=2 / b_bias=0 / direct=3 / weightb=1 / open_gop=0 / weightp=2 / keyint=240 / keyint_min=24 / scenecut=40 / intra_refresh=0 / rc_lookahead=40 / rc=2pass / mbtree=1 / bitrate=8000 / ratetol=1.0 / qcomp=0.70 / qpmin=0 / qpmax=69 / qpstep=4 / cplxblur=20.0 / qblur=0.5 / ip_ratio=1.40 / aq=1:1.00
Language : English
Encoded date : UTC 2017-09-02 11:13:26
Tagged date : UTC 2017-09-02 11:13:51
Color range : Limited
Color primaries : BT.709
Transfer characteristics : BT.709
Matrix coefficients : BT.709
Menus : 8,9

Video #2
ID : 9
Format : JPEG
Codec ID : jpeg
Duration : 2h 2mn
Bit rate mode : Variable
Bit rate : 712 bps
Width : 640 pixels
Height : 266 pixels
Display aspect ratio : 2.40:1
Frame rate mode : Variable
Frame rate : 0.003 fps
Minimum frame rate : 0.002 fps
Maximum frame rate : 0.005 fps
Color space : YUV
Chroma subsampling : 4:2:0
Bit depth : 8 bits
Compression mode : Lossy
Bits/(Pixel*Frame) : 1.394
Stream size : 695 KiB (0%)
Title : Chapter Images
Language : English
Default : No
Encoded date : UTC 2017-09-02 11:14:02
Tagged date : UTC 2017-09-02 11:14:03
Menu For : 1

Audio #1
ID : 2
Format : AAC
Format/Info : Advanced Audio Codec
Format profile : LC
Codec ID : 40
Duration : 2h 2mn
Bit rate mode : Variable
Bit rate : 158 Kbps
Maximum bit rate : 235 Kbps
Channel(s) : 2 channels
Channel positions : Front: L R
Sampling rate : 48.0 KHz
Frame rate : 46.875 fps (1024 SPF)
Compression mode : Lossy
Stream size : 138 MiB (2%)
Title : Russian Stereo
Language : Russian
Default : Yes
Alternate group : 1
Encoded date : UTC 2017-09-02 11:13:26
Tagged date : UTC 2017-09-02 11:13:53
Fallback From : 4
Menus : 8

Audio #2
ID : 3
Format : AAC
Format/Info : Advanced Audio Codec
Format profile : LC
Codec ID : 40
Duration : 2h 2mn
Bit rate mode : Variable
Bit rate : 158 Kbps
Maximum bit rate : 243 Kbps
Channel(s) : 2 channels
Channel positions : Front: L R
Sampling rate : 48.0 KHz
Frame rate : 46.875 fps (1024 SPF)
Compression mode : Lossy
Stream size : 138 MiB (2%)
Title : English Stereo
Language : English
Default : No
Alternate group : 1
Encoded date : UTC 2017-09-02 11:13:26
Tagged date : UTC 2017-09-02 11:13:53
Fallback From : 5

Audio #3
ID : 4
Format : AC-3
Format/Info : Audio Coding 3
Format settings, Endianness : Big
Codec ID : ac-3
Duration : 2h 2mn
Bit rate mode : Constant
Bit rate : 640 Kbps
Channel(s) : 6 channels
Channel positions : Front: L C R, Side: L R, LFE
Sampling rate : 48.0 KHz
Frame rate : 31.250 fps (1536 SPF)
Bit depth : 16 bits
Compression mode : Lossy
Stream size : 559 MiB (7%)
Title : Russian DD 5.1
Language : Russian
Service kind : Complete Main
Default : Inherited From: 2
Alternate group : 1
Encoded date : UTC 2017-09-02 11:13:26
Tagged date : UTC 2017-09-02 11:13:32
Fallback To : 2

Audio #4
ID : 5
Format : AC-3
Format/Info : Audio Coding 3
Format settings, Endianness : Big
Codec ID : ac-3
Duration : 2h 2mn
Bit rate mode : Constant
Bit rate : 640 Kbps
Channel(s) : 6 channels
Channel positions : Front: L C R, Side: L R, LFE
Sampling rate : 48.0 KHz
Frame rate : 31.250 fps (1536 SPF)
Bit depth : 16 bits
Compression mode : Lossy
Stream size : 559 MiB (7%)
Title : English DD 5.1
Language : English
Service kind : Complete Main
Default : No
Alternate group : 1
Encoded date : UTC 2017-09-02 11:13:26
Tagged date : UTC 2017-09-02 11:13:32
Fallback To : 3

Text #1
ID : 6
Format : Timed Text
Muxing mode : sbtl
Codec ID : tx3g
Duration : 1h 55mn
Bit rate mode : Variable
Bit rate : 82 bps
Stream size : 69.5 KiB (0%)
Title : Russian full
Language : Russian
Default : Yes
Forced : No
Alternate group : 2
Encoded date : UTC 2017-09-02 11:13:26
Tagged date : UTC 2017-09-02 11:13:26

Text #2
ID : 7
Format : Timed Text
Muxing mode : sbtl
Codec ID : tx3g
Duration : 1h 55mn
Bit rate mode : Variable
Bit rate : 54 bps
Stream size : 45.8 KiB (0%)
Title : English full
Language : English
Default : No
Forced : No
Alternate group : 2
Encoded date : UTC 2017-09-02 11:13:26
Tagged date : UTC 2017-09-02 11:13:26

Menu #1
00:00:00.000 : Chapter 01
00:04:47.662 : Chapter 02
00:13:07.495 : Chapter 03
00:18:11.924 : Chapter 04
00:22:46.448 : Chapter 05
00:27:51.169 : Chapter 06
00:33:12.907 : Chapter 07
00:37:18.736 : Chapter 08
00:42:19.912 : Chapter 09
00:47:43.694 : Chapter 10
00:52:04.371 : Chapter 11
00:55:56.269 : Chapter 12
01:00:17.447 : Chapter 13
01:06:20.643 : Chapter 14
01:11:25.030 : Chapter 15
01:16:35.883 : Chapter 16
01:21:10.032 : Chapter 17
01:28:18.793 : Chapter 18
01:31:21.559 : Chapter 19
01:34:52.436 : Chapter 20
01:39:23.666 : Chapter 21
01:43:35.876 : Chapter 22
01:50:49.309 : Chapter 23
01:55:27.754 : Chapter 24

Menu #2
ID : 8
Codec ID : text
Duration : 2h 2mn
Language : English
Encoded date : UTC 2017-09-02 11:13:53
Tagged date : UTC 2017-09-02 11:13:53
Bit rate mode : CBR
Menu For : 2,1
00:00:00.000 : Chapter 01
00:04:47.662 : Chapter 02
00:13:07.495 : Chapter 03
00:18:11.924 : Chapter 04
00:22:46.448 : Chapter 05
00:27:51.169 : Chapter 06
00:33:12.907 : Chapter 07
00:37:18.736 : Chapter 08
00:42:19.912 : Chapter 09
00:47:43.694 : Chapter 10
00:52:04.371 : Chapter 11
00:55:56.269 : Chapter 12
01:00:17.447 : Chapter 13
01:06:20.643 : Chapter 14
01:11:25.030 : Chapter 15
01:16:35.883 : Chapter 16
01:21:10.032 : Chapter 17
01:28:18.793 : Chapter 18
01:31:21.559 : Chapter 19
01:34:52.436 : Chapter 20
01:39:23.666 : Chapter 21
01:43:35.876 : Chapter 22
01:50:49.309 : Chapter 23
01:55:27.754 : Chapter 24
x264 [info]: frame I:1149 Avg QP:16.06 size:210914
x264 [info]: frame P:48307 Avg QP:19.15 size: 61911
x264 [info]: frame B:126128 Avg QP:20.21 size: 32390
x264 [info]: consecutive B-frames: 8.3% 4.4% 8.7% 16.8% 18.8% 32.9% 6.0% 0.9% 1.0% 0.7% 0.4% 0.1% 0.2% 0.3% 0.1% 0.1% 0.2%
x264 [info]: mb I I16..4: 15.7% 67.7% 16.6%
x264 [info]: mb P I16..4: 2.1% 13.4% 1.2% P16..4: 41.5% 15.1% 10.4% 0.3% 0.1% skip:15.9%
x264 [info]: mb B I16..4: 0.1% 2.1% 0.2% B16..8: 45.7% 9.6% 2.3% direct: 8.0% skip:31.9% L0:45.1% L1:45.7% BI: 9.2%
x264 [info]: 8x8 transform intra:80.3% inter:58.8%
x264 [info]: direct mvs spatial:98.6% temporal:1.4%
x264 [info]: coded y,uvDC,uvAC intra: 89.7% 71.4% 42.1% inter: 33.0% 22.2% 5.5%
x264 [info]: i16 v,h,dc,p: 20% 13% 30% 37%
x264 [info]: i8 v,h,dc,ddl,ddr,vr,hd,vl,hu: 8% 8% 10% 10% 14% 12% 13% 12% 13%
x264 [info]: i4 v,h,dc,ddl,ddr,vr,hd,vl,hu: 8% 9% 5% 10% 15% 13% 15% 11% 15%
x264 [info]: i8c dc,h,v,p: 44% 26% 19% 11%
x264 [info]: Weighted P-Frames: Y:4.9% UV:2.8%
x264 [info]: ref P L0: 53.6% 9.6% 21.8% 11.1% 3.8% 0.0%
x264 [info]: ref B L0: 82.2% 14.7% 3.2%
x264 [info]: ref B L1: 92.7% 7.3%
x264 [info]: kb/s:7994.55
Apple TV, iPad, iPhone, iPod Touch.
Windows VLC media player

 ·  , , FAQ-
:  [ 02--2017 14:42 ]

  

.torrent

.torrent 82 KB


: 8.19 GB
(hash) : 530600de5ecdc549d23e3f61c62233cc3d5708a8
··
...

[ATV3] : Alien: Covenant . !

!