Скачать через торрент Детектив Конан: Дело об исчезновении Эдогавы Конана Edogawa Conan Shissou Jiken бесплатно Аниме Все серии на русском torrent

Если у вас наблюдаются проблемы со скриншотами, переходом по ссылками, скачиванием торрентов - проблемы в блокировщике рекламы AdBlock. #хорошегоДня!


Статистика раздачи
Размер:  2.19 GB   |    Зарегистрирован:  18 дней   |    .torrent скачан:  2 раза   |   
Раздают:  1  
   
Загрузка...
 
Автор Сообщение

Galfimbul

avatar Galfimbul


Страна: Япония
Год выпуска: 2014
Жанр: комедия, детектив, романтика, сёнэн
Тип: Special
Продолжительность: 92 мин.
Перевод: RuMagician

Перевод, оформление: powerwar
Редактура, караоке: Hibiki
QC: Roaring_Lion
Перевод лирики: Veles

Режиссер: Ямамото Ясуйтиро
Снято по манге: Детектив Конан
Студия: Описание:
Исчезновение Эдогавы Конана — полуторачасовой спешал, вышедший в этот новый год (2014). За его сценарий отвечал Кэндзи Утида, кинорежиссер, и это причина офигенности этого спешала.
Честно сказать, я с его работами знаком не был. Этот спешл связан с его последним фильмом "Метод вора ключей"/"Ключ от жизни", который оказался невероятно хорошим. Отличным. Потрясающим. Один из лучших фильмов за последний десяток лет! Это криминальная комедия без какой-либо чернухи, но с совершенно прекрасным сценарием! Вот правда, очень советую фильм.
Но вернемся к спешлу Конана. "Исчезновение Эдогавы Конана" оказался сиквелом к "Ключу жизни". Утиде-сэнсэю удалось написать такой сюжет, в котором все герои раскрываются с той стороны, с которой их практически не видишь в сериале. Ран не только вздыхает по Синъити, а и делает все возможное, чтобы отыскать его; Когоро проявляет чудеса детективной мысли, хотя и не без небольшой помощи удачи; Хайбаре вообще отвели целую сюжетную линию по спасению Конана, где она проявляет себя самой-самой замечательной и умной! При этом всем не отстают и главные герои: ни Конан, ни Кондо. Все персонажи живые, а не просто набор черт характера! При этом за весь спешл ни разу не берешься за голову с криком "Ты что, идиот?!".

Teisson ®

Доп. информация: Это авторская раздача.

Качество: BDRip
Тип релиза: Без хардсаба
Формат видео: MKV
Наличие линковки: Нет
Релиз/Автор рипа: SOFCJ
Видео: MPEG4 Video (H264) 1280x720 23.976fps 10 bit 2525kbps
Аудио: FLAC (framed) 48000Hz 6ch 868kbps Японская
General
Unique ID : 235511729986236958565453820360230562536 (0xB12DE8C81D1EBE4F9F03E28A59D5EAE8)
Complete name : E:\Detective Conan - Edogawa Conan Shissou Jiken - Shijou Saiaku no Futsukakan\[SOFCJ-Raws] Detective Conan - Edogawa Conan Shissou Jiken - Shijou Saiaku no Futsukakan (BDRip 1280x720 x264 10bit FLAC).mkv
Format : Matroska
Format version : Version 4 / Version 2
File size : 2.18 GiB
Duration : 1 h 32 min
Overall bit rate mode : Variable
Overall bit rate : 3 395 kb/s
Movie name : [SOFCJ-Raws] Detective Conan - Edogawa Conan Shissou Jiken - Shijou Saiaku no Futsukakan (BDRip 1280x720 x264 10bit FLAC)
Encoded date : UTC 2017-08-20 01:44:40
Writing application : mkvmerge v7.8.0 ('River Man') 32bit built on Apr 3 2015 12:11:22
Writing library : libebml v1.3.1 + libmatroska v1.4.2

Video
ID : 1
Format : AVC
Format/Info : Advanced Video Codec
Format profile : High 10@L4.1
Format settings, CABAC : Yes
Format settings, ReFrames : 9 frames
Codec ID : V_MPEG4/ISO/AVC
Duration : 1 h 32 min
Bit rate : 2 525 kb/s
Width : 1 280 pixels
Height : 720 pixels
Display aspect ratio : 16:9
Frame rate mode : Constant
Frame rate : 23.976 (24000/1001) FPS
Color space : YUV
Chroma subsampling : 4:2:0
Bit depth : 10 bits
Scan type : Progressive
Bits/(Pixel*Frame) : 0.114
Stream size : 1.62 GiB (74%)
Writing library : x264 core 152 r2851kMod ba24899
Encoding settings : cabac=1 / ref=9 / deblock=1:-2:-2 / analyse=0x3:0x133 / me=umh / subme=10 / psy=1 / fade_compensate=0.00 / psy_rd=1.00:0.00 / mixed_ref=1 / me_range=24 / chroma_me=1 / trellis=2 / 8x8dct=1 / cqm=0 / deadzone=21,11 / fast_pskip=0 / chroma_qp_offset=-2 / threads=12 / lookahead_threads=2 / sliced_threads=0 / nr=0 / decimate=0 / interlaced=0 / bluray_compat=0 / constrained_intra=0 / bframes=8 / b_pyramid=2 / b_adapt=2 / b_bias=0 / direct=3 / weightb=1 / open_gop=0 / weightp=2 / keyint=250 / keyint_min=23 / scenecut=40 / intra_refresh=0 / rc_lookahead=60 / rc=crf / mbtree=1 / crf=15.0000 / qcomp=0.60 / qpmin=5 / qpmax=40 / qpstep=4 / ip_ratio=1.40 / aq=1:1.00
Language : Japanese
Default : Yes
Forced : No

Audio
ID : 2
Format : FLAC
Format/Info : Free Lossless Audio Codec
Codec ID : A_FLAC
Duration : 1 h 32 min
Bit rate mode : Variable
Bit rate : 868 kb/s
Channel(s) : 6 channels
Channel positions : Front: L C R, Back: L R, LFE
Sampling rate : 48.0 kHz
Frame rate : 11.719 FPS (4096 spf)
Bit depth : 16 bits
Stream size : 572 MiB (26%)
Writing library : libFLAC 1.3.2 (UTC 2017-01-01)
Language : Japanese
Default : Yes
Forced : No
...4975238 - BDRip


Трекер:  [ 02-Сен-2017 11:01 ]

  

Скачать .torrent

Размер .torrent файла 12 KB


Размер: 2.19 GB
Хэш (hash) релиза: 7848f61166a94bf33f241b2f84690f672875c993
Подписка на обновления:

Еще никто не оставлял запись к записи скачать торрент Детектив Конан: Дело об исчезновении Эдогавы Конана Edogawa Conan Shissou Jiken . Будь первым!

!Обратная связь