Скачать через торрент Европа и Италия Europe and Italy Фильм бесплатно в хорошем качестве torrent

Скачивайте на UnionPeer.org фильмы через торрент без регистрации. Новинки кино в хорошем качестве через торрент. На UnionPeer.org можно скачать через торрент фильмы 2014 и 2015 годов. Самые новые фильмы.

Скачать торрент Европа и Италия Europe and Italy бесплатно через .torrent фильм мультфильм сериал

Если у вас наблюдаются проблемы со скриншотами, переходом по ссылками, скачиванием торрентов - проблемы в блокировщике рекламы AdBlock. #хорошегоДня!


Статистика раздачи
Размер:  32 MB   |    Зарегистрирован:  2 месяца 23 дня   |    .torrent скачан:  4 раза   |   
Раздают:  1  
   
Загрузка...
 
Автор Сообщение

Galfimbul

avatar Galfimbul


Европа и Италия / Europe and Italy

Страна: Италия
Жанр: мультфильм, сатира
Продолжительность: 00:05:09
Год выпуска: 1999
Перевод: субтитры (alex.n42)
Русские субтитры: есть

Режиссёр: Бруно Боццетто / Bruno Bozzetto

Описание: Шуточный фильм, в котором известный итальянский мультипликатор подмечает отличия своих соотечественников от прочих европейцев.
Доп. информация: Особое упоминание за наблюдение людских отличий - Фестиваль в Загребе (2000)

Качество: WEBRip
Формат: AVI
Видео: 722 kbps, 640х464 (1.379), 25.000 fps, MPEG-4 Visual (XviD)
Аудио: 128 kbps, 44.1 kHz, 2 channels, MPEG Audio (MP3)
Субтитры: softsub (SRT)
GeneralComplete name : Europe and Italy (1999).aviFormat : AVIFormat/Info : Audio Video InterleaveFile size : 31.8 MiBDuration : 5mn 9sOverall bit rate : 862 KbpsWriting application : Lavf57.25.100Writing library : VirtualDub build 35491/release

VideoID : 0Format : MPEG-4 VisualFormat profile : Advanced Simple@L4Format settings, BVOP : 2Format settings, QPel : NoFormat settings, GMC : No warppointsFormat settings, Matrix : Default (H.263)Codec ID : XVIDCodec ID/Hint : XviDDuration : 5mn 9sBit rate : 722 KbpsWidth : 640 pixelsHeight : 464 pixelsDisplay aspect ratio : 1.379Frame rate : 25.000 fpsColor space : YUVChroma subsampling : 4:2:0Bit depth : 8 bitsScan type : ProgressiveCompression mode : LossyBits/(Pixel*Frame) : 0.097Stream size : 26.6 MiB (84%)Writing library : XviD 73

AudioID : 1Format : MPEG AudioFormat version : Version 1Format profile : Layer 3Codec ID : 55Codec ID/Hint : MP3Duration : 5mn 9sBit rate mode : ConstantBit rate : 128 KbpsChannel(s) : 2 channelsSampling rate : 44.1 KHzCompression mode : LossyStream size : 4.73 MiB (15%)Alignment : Aligned on interleavesInterleave, duration : 26 ms (0.65 video frame)Interleave, preload duration : 522 msWriting library : LAME3.99.5


Трекер:  [ 02-Сен-2017 06:36 ]

  

Скачать .torrent

Размер .torrent файла 20 KB


Размер: 32 MB
Хэш (hash) релиза: 22c42802b08ef14503d582c11c151d31c3115006
Подписка на обновления:

Еще никто не оставлял запись к записи скачать торрент Европа и Италия Europe and Italy . Будь первым!

!Обратная связь