Скачать через торрент Весь КВН-1996 Фильм бесплатно в хорошем качестве torrent

Скачивайте на UnionPeer.org фильмы через торрент без регистрации. Новинки кино в хорошем качестве через торрент. На UnionPeer.org можно скачать через торрент фильмы 2014 и 2015 годов. Самые новые фильмы.

Скачать торрент Весь КВН-1996 бесплатно через .torrent фильм мультфильм сериал

Если у вас наблюдаются проблемы со скриншотами, переходом по ссылками, скачиванием торрентов - проблемы в блокировщике рекламы AdBlock. #хорошегоДня!


Статистика раздачи
Размер:  9.92 GB   |    Зарегистрирован:  20 дней   |    .torrent скачан:  1 раз   |   
Раздают:  1  
   
Загрузка...
 
Автор Сообщение

Galfimbul

avatar Galfimbul


Весь КВН-1996 (Высшая лига)



Любите ли вы КВН так, как любим его мы?
Умеете ли вы ценить игру, даже если в ней участвуют не ваши самые-самые команды? Готовы ли вы пересматривать любимые игры по нескольку раз? А так же беречь их, лелеять, аккуратно складывать в красивые коробочки,
которые потом будут лежать на самых модных полках вашего дома? Тогда нам по пути! KVNforAll - отдам КВН в хорошие руки! Форум для коллекционеров, безумных коллекционеров и просто тех, кто не смог посмотреть игру по телевизору.

Вот она! Долгожданная МЕГАРАЗДАЧА - ВЕСЬ КВН-1996! Полный набор игр Высшей лиги.

Напомню основные принципы:
1. Нет необходимости скачивать все выпуски целиком, т.к. при использовании BitComet, uTorrent и остальных прогрессивных торрент-клиентов можно отметить лишь выпуски, необходимые именно вам.
2. Краткие техданные для каждого файла приведены ниже. Подробнее о каждом из них можно узнать, кликнув по ссылке "афишка" рядом.
3. Любой желающий может присоединиться к раздаче, при наличии наших релизов у себя на компе (только не переименовывайте их, пожалуйста!). Наш проект некоммерческий и держится исключительно на энтузиазме его участников, любая помощь приветствуется <img class="smile" src="//static.t-ru.org/smiles/icon_smile.gif" alt="">

Так что присоединяйтесь и не переключайтесь! <img class="smile" src="//static.t-ru.org/smiles/icon_biggrin.gif" alt="">

Высшая лига:

КиВиН в Сочи (7-й международный фестиваль)
Файл: KVN.1996.(01).Sochi.www.kvnforall.info.avi
Размер: 1446.65 Mb ( 1 516 922 880 bytes )
Продолжительность: 01:33:44.959 (140624 frames)
Видео: 640x480 (1.33:1), 25 fps, DivX Codec 5.02 build 484 ~2015 kbps avg, 0.26 bit/pixel
Звук: 48 kHz, MPEG Layer 3, 1 ch, ~128.00 kbps avg
Качество: VHS-Rip
Рип предоставлен: Runner & Kokosov
Афишка: Juffin
афишка

1-я 1/8 финала (50 на 50 - Самарский самолёт - сб. ЛГПИ - Уральские Пельмени - Новые армяне)
Файл: KVN.1996.(02).1.1-8.www.kvnforall.info.avi
Размер: 741 Mb ( 777 828 352 bytes )
Продолжительность: 1:20:21 (120503 frames)
Видео: 640x480, 25 fps, DivX Codec (4/5/6) ~1201 kbps avg, 0.156 bit/pixel
Звук: 48 kHz, MPEG Layer 3, 1 ch, ~80.00 kbps avg
Качество: VHS-Rip
Рип предоставлен: DiJem
афишка

2-я 1/8 финала (Ворошиловские стрелки - Иркутские декабристы - Махачкалинские бродяги - сб. СПбУЭиФ - сб. БГУ - Настоящие тамады)
Файл: KVN.1996.(03).2.1-8.www.kvnforall.info.avi
Размер: 695 Mb ( 728 803 328 bytes )
Продолжительность: 1:18:01 (117004 frames)
Видео: 560x420, 25 fps, DivX Codec (4/5/6) ~1175 kbps avg, 0.200 bit/pixel
Звук: 44.1 kHz, MPEG Layer 3, 1 ch, ~64.00 kbps avg
Качество: VHS-Rip
Рип предоставлен: DiJem
Афишка: gabul
афишка

1-я 1/4 финала (Уральские пельмени - сб. СПбУЭиФ - Новые армяне - Запорожье-Кривой рог-Транзит)
Файл: KVN.1996.(04).1.1-4.www.kvnforall.info.avi
Размер: 1336 Mb ( 1 401 709 464 bytes )
Продолжительность: 01:08:14 (102372 frames)
Видео: 640x480, 25 fps, DivX Codec (4/5/6) ~2674 kbps avg, 0.36 bit/pixel
Звук: 48 kHz, MPEG Layer 3, 1 ch, ~64.00 kbps avg
Качество: VHS-Rip
Рип предоставлен: Runner & KoKosov & krash
Афишка: Олимпиец
афишка

2-я 1/4 финала (сб. БГУ - Ворошиловские стрелки - Махачкалинские бродяги - Иркутские декабристы)
Файл: KVN.1996.(05).2.1-4.www.kvnforall.info
Размер: 700 Mb ( 734 112 444 bytes )
Продолжительность: 1:06:48 (100175 frames)
Видео: 640х480 (1.33:1), 25 fps, DivX Codec 5.x ~1391 kbps avg, 0.181 bit/pixel
Звук: 48 kHz, MPEG Layer 3, 1 ch, ~64.00 kbps avg
Качество: VHS-Rip
Рип предостален: Runner & KoKosov & krash
Афишка: Brox
афишка

Голосящий КиВиН в Юрмале (музыкальный фестиваль)
Файл: KVN.1996.(06).Jurmala.www.kvnforall.info.avi
Размер: 679 Mb ( 712 622 080 bytes )
Продолжительность: 01:26:09.24 (129231 frames)
Видео: 560x420 (1.33:1), 25 fps, DivX Codec 5.0 ~1031 kbps avg, 0.18 bit/pixel
Аудио: 44.1 kHz, MPEG Layer 3, 1 ch, ~64.00 kbps avg
Качество: VHS-Rip
Рип предоставлен: DiJem & krash
Афишка: Олимпиец
афишка

Летний Кубок (Эскадрон Гусар - сб. ХАИ)
Файл: KVN.1996.(07).Letnij.kubok.www.kvnforall.info.avi
Размер: 682 Mb ( 715 767 808 bytes )
Продолжительность: 1:31:54 (137847 frames)
Видео: 640x480 (1.33:1), 25 fps, DivX Codec 5.x or 6.x ~900 kbps avg, 0.117 bit/pixel
Звук: 44,1 kHz, MPEG Layer 3, 2 ch, ~128.00 kbps avg
Качество: SAT-Rip
Рип предоставлен: Hechkim
Афишка: Juffin
афишка

1-й полуфинал (Махачкалинские бродяги - Новые армяне)
Файл: KVN.1996.(08).1.Polufinal.www.kvnforall.info.avi
Размер: 746 Mb ( 783 171 584 bytes )
Продолжительность: 1:35:25 (143117 frames)
Видео: 560x420 (1.33:1), 25 fps, DivX Codec 5.x ~1020 kbps avg, 0.173 bit/pixel
Звук: 44.1 kHz, MPEG Layer 3, 1 ch, ~64.00 kbps avg
Качество: TV-Rip
Рип предоставлен: DiJem
афишка

2-й полуфинал (cб. БГУ - Запорожье-Кривой Рог-Транзит)
Файл: KVN.1996.(09).2.Polufinal.www.kvnforall.info.avi
Размер: 754 Mb ( 791 005 184 bytes )
Продолжительность: 1:25:27 (128160 frames)
Видео: 560x420 (1.33:1), 25 fps, DivX Codec 5.x ~1160 kbps avg, 0.197 bit/pixel
Звук: 44.1 kHz, MPEG Layer 3, 1 ch, ~64.00 kbps avg
Качество: TV-Rip
Рип предоставлен: DiJem
афишка

Спецпроект. КВНу - 35 лет!
Команды: "Фениксята" (Московский учебно-воспитательный комплекс "Феникс"), Харьковский Университет Внутренних дел, Ташкентский политехнический университет, "Настоящие тамады" (Тбилиси), Леонид Парфенов, "Парэкс" (Рига), "Новые армяне" (Ереван), Иван Демидов+Игорь Верник+Богдан Титомир+Лена Зосимова, "Парни из Баку", "Запорожье - Кривой Рог - Транзит", Ян Левинзон, Ереванский медицинский институт, "Эскадрон гусар", "Красная бурда", Сергей Сивохо, Донецкий Политехнический институт, Уральский Политехнический инстистут, Геннадий Хазанов, Одесский Государственный университет, Новосибирский Государственный университет, сборная СНГ.
Файл: KVN.1996.(10).35.let.KVN.www.kvnforall.info.avi
Размер: 1244.56 Mb ( 1 305 013 954 bytes )
Продолжительность: 02:26:06.919 (219173 frames)
Видео: 576x432 (1.33:1), 25 fps, DivX Codec 5.2.1 build 1328 ~1101 kbps avg, 0.18 bit/pixel
Звук: 48 kHz, MPEG Layer 3, 1 ch, ~80.00 kbps avg
Качество: VHS-Rip
Рип предоставлен: DiJem & Deduska
Афишка: Natasha Specht
афишка

Финал (сб. БГУ - Махачкалинские бродяги)
Файл: KVN.1996.(11).Final.www.kvnforall.info.avi
Размер: 675 Mb ( 708 610 048 bytes )
Продолжительность: 1:23:30 (125226 frames)
Видео: 640x480 (1.33:1), 25 fps, DivX Codec 5.x ~994 kbps avg, 0.129 bit/pixel
Звук: 44.1 kHz, MPEG Layer 3, 2 ch, ~128.00 kbps avg
Качество: SAT-Rip
Рип предоставлен: Hechkim
Афишка: Saturn
афишка

Международная игра (сб. СНГ - сб. Израиля)
Файл: KVN.1996.(12).SNG.Israel.www.kvnforall.info.avi
Размер: 448 Mb ( 470 673 408 bytes )
Продолжительность: 00:53:26 (80160 frames)
Видео: 640x480 (1.33:1), 25 fps, DivX Codec 5.0 ~1102 kbps avg, 0.14 bit/pixel
Аудио: 48 kHz, MPEG Layer 3, 1 ch, ~64.00 kbps avg
Качество: VHS-Rip
Рип предоставлен: DiJem & krash
Афишка: Олимпиец
афишка
<div class="sp-wrap">
<div class="sp-head folded">КиВиН в Сочи</div>
<div class="sp-body">
</div>
</div>
<div class="sp-wrap">
<div class="sp-head folded">КиВиН в Сочи</div>
<div class="sp-body">

GeneralFormat : AVIFormat/Info : Audio Video InterleaveFile size : 1.41 GiBDuration : 1 h 33 minOverall bit rate : 2 157 kb/sWriting application : Nandub v1.0rc2Writing library : Nandub build 1853/release

VideoID : 0Format : MPEG-4 VisualFormat settings, BVOP : YesFormat settings, QPel : NoFormat settings, GMC : No warppointsFormat settings, Matrix : Default (H.263)Codec ID : DX50Codec ID/Hint : DivX 5Duration : 1 h 33 minBit rate : 2 017 kb/sWidth : 640 pixelsHeight : 480 pixelsDisplay aspect ratio : 4:3Frame rate : 25.000 FPSColor space : YUVChroma subsampling : 4:2:0Bit depth : 8 bitsScan type : ProgressiveCompression mode : LossyBits/(Pixel*Frame) : 0.263Stream size : 1.32 GiB (93%)Writing library : DivX 5.0.2 (UTC 2002-05-16)

AudioID : 1Format : MPEG AudioFormat version : Version 1Format profile : Layer 3Codec ID : 55Codec ID/Hint : MP3Duration : 1 h 33 minBit rate mode : ConstantBit rate : 128 kb/sChannel(s) : 1 channelSampling rate : 48.0 kHzCompression mode : LossyStream size : 85.8 MiB (6%)Alignment : Aligned on interleavesInterleave, duration : 24 ms (0.60 video frame)Interleave, preload duration : 480 ms
GeneralFormat : AVIFormat/Info : Audio Video InterleaveFile size : 742 MiBDuration : 1 h 20 minOverall bit rate : 1 291 kb/sWriting application : VirtualDubMod 1.5.10.1 (build 2366/release)Writing library : VirtualDubMod build 2366/release

VideoID : 0Format : MPEG-4 VisualFormat settings, BVOP : 1Format settings, QPel : NoFormat settings, GMC : No warppointsFormat settings, Matrix : Default (H.263)Muxing mode : Packed bitstreamCodec ID : DX50Codec ID/Hint : DivX 5Duration : 1 h 20 minBit rate : 1 201 kb/sNominal bit rate : 896 kb/sWidth : 640 pixelsHeight : 480 pixelsDisplay aspect ratio : 4:3Frame rate : 25.000 FPSColor space : YUVChroma subsampling : 4:2:0Bit depth : 8 bitsScan type : ProgressiveCompression mode : LossyBits/(Pixel*Frame) : 0.156Stream size : 690 MiB (93%)Writing library : DivX 5.2.1 (WaffleDay) (UTC 2004-09-08)

AudioID : 1Format : MPEG AudioFormat version : Version 1Format profile : Layer 3Codec ID : 55Codec ID/Hint : MP3Duration : 1 h 20 minBit rate mode : ConstantBit rate : 80.0 kb/sChannel(s) : 1 channelSampling rate : 48.0 kHzCompression mode : LossyStream size : 46.0 MiB (6%)Alignment : Aligned on interleavesInterleave, duration : 40 ms (1.00 video frame)Interleave, preload duration : 504 msWriting library : LAME4.0aEncoding settings : -m m -V 4 -q 2 -lowpass 13.6 -b 80
GeneralFormat : AVIFormat/Info : Audio Video InterleaveFile size : 695 MiBDuration : 1 h 18 minOverall bit rate : 1 246 kb/sWriting application : Nandub v2.01 The advanced compression technology is developed by NeiromasterWriting library : Nandub 2.01 modified by Neiromaster

VideoID : 0Format : MPEG-4 VisualFormat settings, BVOP : 1Format settings, QPel : NoFormat settings, GMC : No warppointsFormat settings, Matrix : Default (H.263)Muxing mode : Packed bitstreamCodec ID : DX50Codec ID/Hint : DivX 5Duration : 1 h 18 minBit rate : 1 176 kb/sNominal bit rate : 11.8 Mb/sWidth : 560 pixelsHeight : 420 pixelsDisplay aspect ratio : 4:3Frame rate : 25.000 FPSColor space : YUVChroma subsampling : 4:2:0Bit depth : 8 bitsScan type : ProgressiveCompression mode : LossyBits/(Pixel*Frame) : 0.200Stream size : 656 MiB (94%)Writing library : DivX 5.1.1 (Maupiti) (UTC 2003-11-19)

AudioID : 1Format : MPEG AudioFormat version : Version 1Format profile : Layer 3Codec ID : 55Codec ID/Hint : MP3Duration : 1 h 18 minBit rate mode : ConstantBit rate : 64.0 kb/sChannel(s) : 1 channelSampling rate : 44.1 kHzCompression mode : LossyDelay relative to video : 250 msStream size : 35.7 MiB (5%)Alignment : Split accross interleavesInterleave, duration : 200 ms (5.00 video frames)Interleave, preload duration : 200 msWriting library : LAME3.90Encoding settings : -m m -V 4 -q 2 -lowpass 13.7 -b 64
GeneralFormat : AVIFormat/Info : Audio Video InterleaveFile size : 1.31 GiBDuration : 1 h 8 minOverall bit rate : 2 738 kb/sMovie name : High_1996.(04)._1_1-4Director : RunnerWritten by : АМИКDistributed by : www.kvnforall.infoGenre : юмористическийLaw rating : не проходило оценкуOriginal source form/Name : телепередачаCopyright : DA

VideoID : 0Format : MPEG-4 VisualFormat settings, BVOP : YesFormat settings, QPel : NoFormat settings, GMC : No warppointsFormat settings, Matrix : Default (H.263)Codec ID : DX50Codec ID/Hint : DivX 5Duration : 1 h 8 minBit rate : 2 665 kb/sWidth : 640 pixelsHeight : 480 pixelsDisplay aspect ratio : 4:3Frame rate : 25.000 FPSColor space : YUVChroma subsampling : 4:2:0Bit depth : 8 bitsScan type : ProgressiveCompression mode : LossyBits/(Pixel*Frame) : 0.347Stream size : 1.27 GiB (97%)Writing library : DivX 5.0.2 (UTC 2002-05-16)

AudioID : 1Format : MPEG AudioFormat version : Version 1Format profile : Layer 3Codec ID : 55Codec ID/Hint : MP3Duration : 1 h 8 minBit rate mode : ConstantBit rate : 64.0 kb/sChannel(s) : 1 channelSampling rate : 48.0 kHzCompression mode : LossyStream size : 31.2 MiB (2%)Alignment : Split accross interleavesInterleave, duration : 40 ms (1.00 video frame)Interleave, preload duration : 500 msLanguage : Не определен
GeneralFormat : AVIFormat/Info : Audio Video InterleaveFile size : 700 MiBDuration : 1 h 6 minOverall bit rate : 1 466 kb/sMovie name : High_1996.(05)._2_1-4Director : RunnerWritten by : АМИКDistributed by : www.kvnforall.infoGenre : юмористическийLaw rating : не проходило оценкуOriginal source form/Name : телепередачаCopyright : DA

VideoID : 0Format : MPEG-4 VisualFormat settings, BVOP : YesFormat settings, QPel : NoFormat settings, GMC : No warppointsFormat settings, Matrix : Default (H.263)Codec ID : DX50Codec ID/Hint : DivX 5Duration : 1 h 6 minBit rate : 1 396 kb/sWidth : 640 pixelsHeight : 480 pixelsDisplay aspect ratio : 4:3Frame rate : 25.000 FPSColor space : YUVChroma subsampling : 4:2:0Bit depth : 8 bitsScan type : ProgressiveCompression mode : LossyBits/(Pixel*Frame) : 0.182Stream size : 667 MiB (95%)Writing library : DivX 5.0.2 (UTC 2002-05-16)

AudioID : 1Format : MPEG AudioFormat version : Version 1Format profile : Layer 3Codec ID : 55Codec ID/Hint : MP3Duration : 1 h 6 minSource duration : 1 h 6 minBit rate mode : ConstantBit rate : 64.0 kb/sChannel(s) : 1 channelSampling rate : 48.0 kHzCompression mode : LossyStream size : 30.6 MiB (4%)Alignment : Split accross interleavesInterleave, duration : 40 ms (1.00 video frame)Interleave, preload duration : 423 msLanguage : Не определен
GeneralFormat : AVIFormat/Info : Audio Video InterleaveFile size : 680 MiBDuration : 1 h 26 minOverall bit rate : 1 103 kb/sDirector : DiJEMWriting application : Nandub v1.0rc2Writing library : Nandub build 1853/release

VideoID : 0Format : MPEG-4 VisualFormat settings, BVOP : 1Format settings, QPel : NoFormat settings, GMC : No warppointsFormat settings, Matrix : Default (H.263)Muxing mode : Packed bitstreamCodec ID : DX50Codec ID/Hint : DivX 5Duration : 1 h 26 minBit rate : 1 026 kb/sWidth : 560 pixelsHeight : 420 pixelsDisplay aspect ratio : 4:3Frame rate : 25.000 FPSColor space : YUVChroma subsampling : 4:2:0Bit depth : 8 bitsScan type : ProgressiveCompression mode : LossyBits/(Pixel*Frame) : 0.175Stream size : 632 MiB (93%)Writing library : DivX 5.0.5 (UTC 2003-04-24)

AudioID : 1Format : MPEG AudioFormat version : Version 1Format profile : Layer 3Codec ID : 55Codec ID/Hint : MP3Duration : 1 h 26 minBit rate mode : ConstantBit rate : 64.0 kb/sChannel(s) : 1 channelSampling rate : 44.1 kHzCompression mode : LossyDelay relative to video : 23 msStream size : 39.4 MiB (6%)Alignment : Aligned on interleavesInterleave, duration : 26 ms (0.65 video frame)Interleave, preload duration : 624 ms
GeneralFormat : AVIFormat/Info : Audio Video InterleaveFile size : 683 MiBDuration : 1 h 31 minOverall bit rate : 1 038 kb/sWriting library : VirtualDub build 18160/release

VideoID : 0Format : MPEG-4 VisualFormat settings, BVOP : 1Format settings, QPel : NoFormat settings, GMC : No warppointsFormat settings, Matrix : Default (H.263)Muxing mode : Packed bitstreamCodec ID : DX50Codec ID/Hint : DivX 5Duration : 1 h 31 minBit rate : 901 kb/sNominal bit rate : 4 000 kb/sWidth : 640 pixelsHeight : 480 pixelsDisplay aspect ratio : 4:3Frame rate : 25.000 FPSColor space : YUVChroma subsampling : 4:2:0Bit depth : 8 bitsScan type : ProgressiveCompression mode : LossyBits/(Pixel*Frame) : 0.117Stream size : 592 MiB (87%)Writing library : DivX 5.0.5 Beta(Tahanea) (UTC 2003-01)

AudioID : 1Format : MPEG AudioFormat version : Version 1Format profile : Layer 3Codec ID : 55Codec ID/Hint : MP3Duration : 1 h 31 minBit rate mode : ConstantBit rate : 128 kb/sChannel(s) : 2 channelsSampling rate : 44.1 kHzCompression mode : LossyStream size : 84.1 MiB (12%)Alignment : Split accross interleavesInterleave, duration : 40 ms (1.00 video frame)Interleave, preload duration : 500 ms
GeneralFormat : AVIFormat/Info : Audio Video InterleaveFile size : 747 MiBDuration : 1 h 35 minOverall bit rate : 1 094 kb/sWriting application : VirtualDubMod 1.5.10.1 (build 2366/release)Writing library : VirtualDubMod build 2366/release

VideoID : 0Format : MPEG-4 VisualFormat settings, BVOP : 1Format settings, QPel : NoFormat settings, GMC : No warppointsFormat settings, Matrix : Default (H.263)Muxing mode : Packed bitstreamCodec ID : DX50Codec ID/Hint : DivX 5Duration : 1 h 35 minBit rate : 1 021 kb/sNominal bit rate : 10.2 Mb/sWidth : 560 pixelsHeight : 420 pixelsDisplay aspect ratio : 4:3Frame rate : 25.000 FPSColor space : YUVChroma subsampling : 4:2:0Bit depth : 8 bitsScan type : ProgressiveCompression mode : LossyBits/(Pixel*Frame) : 0.174Stream size : 697 MiB (93%)Writing library : DivX 5.1.1 (Maupiti) (UTC 2003-11-19)

AudioID : 1Format : MPEG AudioFormat version : Version 1Format profile : Layer 3Codec ID : 55Codec ID/Hint : MP3Duration : 1 h 35 minBit rate mode : ConstantBit rate : 64.0 kb/sChannel(s) : 1 channelSampling rate : 44.1 kHzCompression mode : LossyStream size : 43.7 MiB (6%)Alignment : Split accross interleavesInterleave, duration : 40 ms (1.00 video frame)Interleave, preload duration : 500 msWriting library : LAME3.90Encoding settings : -m m -V 4 -q 2 -lowpass 13.7 -b 64
GeneralFormat : AVIFormat/Info : Audio Video InterleaveFile size : 754 MiBDuration : 1 h 25 minOverall bit rate : 1 234 kb/sWriting application : VirtualDubMod 1.5.10.1 (build 2366/release)Writing library : VirtualDubMod build 2366/release

VideoID : 0Format : MPEG-4 VisualFormat settings, BVOP : 1Format settings, QPel : NoFormat settings, GMC : No warppointsFormat settings, Matrix : Default (H.263)Muxing mode : Packed bitstreamCodec ID : DX50Codec ID/Hint : DivX 5Duration : 1 h 25 minBit rate : 1 161 kb/sNominal bit rate : 11.6 Mb/sWidth : 560 pixelsHeight : 420 pixelsDisplay aspect ratio : 4:3Frame rate : 25.000 FPSColor space : YUVChroma subsampling : 4:2:0Bit depth : 8 bitsScan type : ProgressiveCompression mode : LossyBits/(Pixel*Frame) : 0.197Stream size : 709 MiB (94%)Writing library : DivX 5.1.1 (Maupiti) (UTC 2003-11-19)

AudioID : 1Format : MPEG AudioFormat version : Version 1Format profile : Layer 3Codec ID : 55Codec ID/Hint : MP3Duration : 1 h 25 minBit rate mode : ConstantBit rate : 64.0 kb/sChannel(s) : 1 channelSampling rate : 44.1 kHzCompression mode : LossyStream size : 39.1 MiB (5%)Alignment : Split accross interleavesInterleave, duration : 40 ms (1.00 video frame)Interleave, preload duration : 500 msWriting library : LAME3.90Encoding settings : -m m -V 4 -q 2 -lowpass 13.7 -b 64
GeneralFormat : AVIFormat/Info : Audio Video InterleaveFile size : 1.22 GiBDuration : 2 h 26 minOverall bit rate : 1 191 kb/sWriting application : VirtualDubMod 1.5.10.1 (build 2366/release)Writing library : VirtualDub build 23567/release

VideoID : 0Format : MPEG-4 VisualFormat settings, BVOP : 1Format settings, QPel : NoFormat settings, GMC : No warppointsFormat settings, Matrix : Default (H.263)Muxing mode : Packed bitstreamCodec ID : DX50Codec ID/Hint : DivX 5Duration : 2 h 26 minBit rate : 1 101 kb/sNominal bit rate : 12.0 Mb/sWidth : 576 pixelsHeight : 432 pixelsDisplay aspect ratio : 4:3Frame rate : 25.000 FPSColor space : YUVChroma subsampling : 4:2:0Bit depth : 8 bitsScan type : ProgressiveCompression mode : LossyBits/(Pixel*Frame) : 0.177Stream size : 1.12 GiB (92%)Writing library : DivX 5.2.1 (WaffleDay) (UTC 2004-09-08)

AudioID : 1Format : MPEG AudioFormat version : Version 1Format profile : Layer 3Codec ID : 55Codec ID/Hint : MP3Duration : 2 h 26 minBit rate mode : ConstantBit rate : 80.0 kb/sChannel(s) : 1 channelSampling rate : 48.0 kHzCompression mode : LossyStream size : 83.6 MiB (7%)Alignment : Aligned on interleavesInterleave, duration : 40 ms (1.00 video frame)Interleave, preload duration : 504 msWriting library : LAME4.0aEncoding settings : -m m -V 4 -q 2 -lowpass 13.6 -b 80
GeneralFormat : AVIFormat/Info : Audio Video InterleaveFile size : 676 MiBDuration : 1 h 23 minOverall bit rate : 1 132 kb/sWriting application : VirtualDubMod 1.5.10.1 (build 2366/release)Writing library : VirtualDubMod build 2366/release

VideoID : 0Format : MPEG-4 VisualFormat settings, BVOP : 1Format settings, QPel : NoFormat settings, GMC : No warppointsFormat settings, Matrix : Default (H.263)Muxing mode : Packed bitstreamCodec ID : DX50Codec ID/Hint : DivX 5Duration : 1 h 23 minBit rate : 994 kb/sWidth : 640 pixelsHeight : 480 pixelsDisplay aspect ratio : 4:3Frame rate : 25.000 FPSColor space : YUVChroma subsampling : 4:2:0Bit depth : 8 bitsScan type : ProgressiveCompression mode : LossyBits/(Pixel*Frame) : 0.129Stream size : 594 MiB (88%)Writing library : DivX 5.0.5 Beta(Tahanea) (UTC 2003-01)

AudioID : 1Format : MPEG AudioFormat version : Version 1Format profile : Layer 3Codec ID : 55Codec ID/Hint : MP3Duration : 1 h 23 minBit rate mode : ConstantBit rate : 128 kb/sChannel(s) : 2 channelsSampling rate : 44.1 kHzCompression mode : LossyDelay relative to video : 7 msStream size : 76.4 MiB (11%)Alignment : Split accross interleavesInterleave, duration : 40 ms (1.00 video frame)Interleave, preload duration : 500 ms
GeneralFormat : AVIFormat/Info : Audio Video InterleaveFile size : 449 MiBDuration : 53 min 26 sOverall bit rate mode : VariableOverall bit rate : 1 174 kb/sWriting application : Nandub v1.0rc2Writing library : Nandub build 1853/release

VideoID : 0Format : MPEG-4 VisualFormat settings, BVOP : 1Format settings, QPel : NoFormat settings, GMC : No warppointsFormat settings, Matrix : Default (H.263)Muxing mode : Packed bitstreamCodec ID : DX50Codec ID/Hint : DivX 5Duration : 53 min 26 sBit rate : 1 097 kb/sNominal bit rate : 6 951 kb/sWidth : 640 pixelsHeight : 480 pixelsDisplay aspect ratio : 4:3Frame rate : 25.000 FPSColor space : YUVChroma subsampling : 4:2:0Bit depth : 8 bitsScan type : ProgressiveCompression mode : LossyBits/(Pixel*Frame) : 0.143Stream size : 419 MiB (93%)Writing library : DivX 5.2.1 (WaffleDay) (UTC 2004-09-08)

AudioID : 1Format : MPEG AudioFormat version : Version 1Format profile : Layer 3Codec ID : 55Codec ID/Hint : MP3Duration : 53 min 26 sBit rate mode : VariableBit rate : 64.0 kb/sChannel(s) : 1 channelSampling rate : 48.0 kHzCompression mode : LossyStream size : 24.5 MiB (5%)Alignment : Aligned on interleavesInterleave, duration : 24 ms (0.60 video frame)Interleave, preload duration : 498 msWriting library : Gogo >=3.0
</div>
</div>
Команда желает вам веселого просмотра!

Трекер:  [ 01-Сен-2017 15:12 ]

  

Скачать .torrent

Размер .torrent файла 51 KB


Размер: 9.92 GB
Хэш (hash) релиза: a5c370c59306f733e3aa9476db626dba122e9ef0
Подписка на обновления:

Еще никто не оставлял запись к записи скачать торрент Весь КВН-1996 . Будь первым!

!Обратная связь