Скачать через торрент Посмотрите вверх Look up Фильм бесплатно в хорошем качестве torrent

Скачивайте на UnionPeer.org фильмы через торрент без регистрации. Новинки кино в хорошем качестве через торрент. На UnionPeer.org можно скачать через торрент фильмы 2014 и 2015 годов. Самые новые фильмы.

Скачать торрент Посмотрите вверх Look up бесплатно через .torrent фильм мультфильм сериал

Если у вас наблюдаются проблемы со скриншотами, переходом по ссылками, скачиванием торрентов - проблемы в блокировщике рекламы AdBlock. #хорошегоДня!


Статистика раздачи
Размер:  85 MB   |    Зарегистрирован:  2 месяца 23 дня   |    .torrent скачан:  4 раза   |   
Раздают:  1  
   
Загрузка...
 
Автор Сообщение

Galfimbul

avatar Galfimbul


Посмотрите вверх / Look up

Страна: Россия
Жанр: мультфильм
Продолжительность: 00:04:51
Год выпуска: 2010
Перевод: не требуется
Русские субтитры: нет

Режиссёр: Светлана Подъячева

Композитор: Алина Ростоцкая

Описание: Фильм об одиночестве маленькой девочки в большом городе, где все люди заняты своими заботами, ходят склонив головы, и не замечают окружающую природу.

Доп. информация: Диплом жюри за лиризм и светлый взгляд - Фестиваль анимации в Суздале (2010)

Качество: WEBRip
Формат: AVI
Видео: 2251 kbps, 720х400 (16:9), 25.000 fps, MPEG-4 Visual (XviD)
Аудио: 192 kbps, 44.1 kHz, 2 channels, MPEG Audio (MP3)
Субтитры: отсутствуют
GeneralComplete name : Посмотрите вверх. 2010.aviFormat : AVIFormat/Info : Audio Video InterleaveFile size : 85.2 MiBDuration : 4mn 51sOverall bit rate : 2 452 KbpsWriting application : MEncoder SVN-r30881(20100311-gcc4.3.3)Writing library : MPlayer

VideoID : 0Format : MPEG-4 VisualFormat profile : Advanced Simple@L5Format settings, BVOP : 2Format settings, QPel : NoFormat settings, GMC : No warppointsFormat settings, Matrix : Default (H.263)Codec ID : XVIDCodec ID/Hint : XviDDuration : 4mn 51sBit rate : 2 251 KbpsWidth : 720 pixelsHeight : 400 pixelsDisplay aspect ratio : 16:9Original display aspect ratio : 16:9Frame rate : 25.000 fpsColor space : YUVChroma subsampling : 4:2:0Bit depth : 8 bitsScan type : ProgressiveCompression mode : LossyBits/(Pixel*Frame) : 0.313Stream size : 78.1 MiB (92%)Writing library : XviD 1.2.1 (UTC 2008-12-04)

AudioID : 1Format : MPEG AudioFormat version : Version 1Format profile : Layer 3Mode : Joint stereoMode extension : MS StereoCodec ID : 55Codec ID/Hint : MP3Duration : 4mn 51sBit rate mode : ConstantBit rate : 192 KbpsChannel(s) : 2 channelsSampling rate : 44.1 KHzCompression mode : LossyDelay relative to video : 40msStream size : 6.67 MiB (8%)Alignment : Aligned on interleavesInterleave, duration : 26 ms (0.65 video frame)Interleave, preload duration : 522 msWriting library : LAME3.98


Трекер:  [ 01-Сен-2017 15:06 ]

  

Скачать .torrent

Размер .torrent файла 14 KB


Размер: 85 MB
Хэш (hash) релиза: a8659b2cff223a71eca12e2d215a8666feb5296d
Подписка на обновления:

Еще никто не оставлял запись к записи скачать торрент Посмотрите вверх Look up . Будь первым!

!Обратная связь