Скачать порно через торрент Netorare Films: The Eve of T*fa's Execution, Final F*ckasy Heaven, Tifa's Ruin UnionPeer.org бесплатно онлайн HD качество

Скачать новое порно 2015, 2014 новинки через торрент UnionPeer.org

Порно торрент бесплатно ЮнионПир.орг

Если у вас наблюдаются проблемы со скриншотами, переходом по ссылками, скачиванием торрентов - проблемы в блокировщике рекламы AdBlock. #хорошегоДня!


Статистика раздачи
Размер:  2.61 GB   |    Зарегистрирован:  2 месяца 19 дней   |    .torrent скачан:  1057 раз   |   
Раздают:  6  
   
Загрузка...
 
Автор Сообщение

Galfimbul

avatar Galfimbul


The Eve of T*fa's Execution
ネトラレ フィルム1 〜テ○ファ処刑前夜〜

Год выпуска: 2014
Жанр: parody, big breast, rape, virgin, oral, anal, paizuri, group
Серии: ep. 1 of 1
Продолжительность: 26mn
Цензура: Есть во всех файлах

Озвучка: Японская оригинальная

Студия: FreespaceP

Описание:
* STORY
T*fa was betrayed and captured by Shinra. Tomorrow she dies. Tonight, she's a toy for the guard keeping watch. Drugged into a lewd stupor, uncuffed only for better access to her holes, T*fa is engulfed in brutality... and with nothing to lose, loses herself in a hallucination...

CV: Sagami
Movie: FreespaceP

http://www.dlsite.com/ecchi-eng/work/=/product_id/RE133421.html

Качество видео: WEB-DL
Разрешение видео: 576p
Формат видео: WMV
Видео: 800-600, 4-3, 30 fps, VC-1 / WMV-3, 4864 kbps
Аудио: jpn, WMA, Stereo, 44.1 KHz, 64 kbps
General
Complete name : 01. The eve of T_fa's execution [4670AD67] (2014).wmv
Format : Windows Media
File size : 913 MiB
Duration : 25 min 51 s
Overall bit rate mode : Variable
Overall bit rate : 4 938 kb/s
Maximum Overall bit rate : 4 928 kb/s
Encoded date : UTC 2014-04-26 07:28:32.000
Writing application : Flip4Mac WMV Export Component for QuickTime (Mac) 3201偄怀깏熀

Video
ID : 2
Format : VC-1
Format profile : Main
Codec ID : WMV3
Codec ID/Info : Windows Media Video 9
Codec ID/Hint : WMV3
Description of the codec : Windows Media Video V9 - 800 x 600, 30.00 fps, Q=100 (VBR)
Duration : 25 min 51 s
Bit rate : 4 864 kb/s
Width : 800 pixels
Height : 600 pixels
Display aspect ratio : 4:3
Frame rate : 30.000 FPS
Color space : YUV
Chroma subsampling : 4:2:0
Bit depth : 8 bits
Scan type : Progressive
Compression mode : Lossy
Bits/(Pixel*Frame) : 0.338
Stream size : 900 MiB (99%)
Language : English (United States)

Audio
ID : 1
Format : WMA
Format version : Version 2
Codec ID : 161
Codec ID/Info : Windows Media Audio
Description of the codec : Windows Media Audio V9 Standard - 64 kbps, 44 kHz, 16 bit, Stereo (CBR)
Duration : 25 min 51 s
Bit rate mode : Variable
Bit rate : 64.0 kb/s
Channel(s) : 2 channels
Sampling rate : 44.1 kHz
Bit depth : 16 bits
Stream size : 11.8 MiB (1%)
Language : English (United States)

Final F*ckasy Heaven
ファイナル 陵辱・ヘブン〜ネトラレ フィルム[ティ○ァ編]〜

Год выпуска: 2015
Жанр: parody, big breast, rape, oral, anal, paizuri, group
Серии: ep. 1 of 1
Продолжительность: 20mn
Цензура: Есть во всех файлах

Озвучка: Японская оригинальная

Студия: FreespaceP

Описание:
* STORY
T*fa's final assault is by relentless men who seduce and destroy. Watch T*fa cum with every hole f*cked, complete with rousing descriptions of her psychological state as drugs seep into her system. With nothing to lose, she loses herself in a hallucination...

CV: Sagami
Movie: FreespaceP
Music: Sweet Tea Music Workshop / Rengku Teien

http://www.dlsite.com/ecchi-eng/work/=/product_id/RE149534.html

Качество видео: WEB-DL
Разрешение видео: 576p
Формат видео: WMV
Видео: 800-600, 4-3, 30 fps, VC-1 / WMV-3, 6989 kbps
Аудио: jpn, WMA, Stereo, 44.1 KHz, 64 kbps
General
Complete name : 02. Final f_ckasy heaven [A69A7901] (2015).wmv
Format : Windows Media
File size : 1 011 MiB
Duration : 20 min 0 s
Overall bit rate mode : Variable
Overall bit rate : 7 066 kb/s
Maximum Overall bit rate : 7 053 kb/s
Encoded date : UTC 2015-02-08 08:07:02.000
Writing application : Flip4Mac WMV Export Component for QuickTime (Mac) 3201ꅰዠ㨨⪿ꅰ㫸㇞㫸煴

Video
ID : 2
Format : VC-1
Format profile : Main
Codec ID : WMV3
Codec ID/Info : Windows Media Video 9
Codec ID/Hint : WMV3
Description of the codec : Windows Media Video V9 - 800 x 600, 30.00 fps, Q=98 (VBR)
Duration : 20 min 0 s
Bit rate : 6 989 kb/s
Width : 800 pixels
Height : 600 pixels
Display aspect ratio : 4:3
Frame rate : 30.000 FPS
Color space : YUV
Chroma subsampling : 4:2:0
Bit depth : 8 bits
Scan type : Progressive
Compression mode : Lossy
Bits/(Pixel*Frame) : 0.485
Stream size : 1 000 MiB (99%)
Language : English (United States)

Audio
ID : 1
Format : WMA
Format version : Version 2
Codec ID : 161
Codec ID/Info : Windows Media Audio
Description of the codec : Windows Media Audio V9 Standard - 64 kbps, 44 kHz, 16 bit, Stereo (CBR)
Duration : 20 min 0 s
Bit rate mode : Variable
Bit rate : 64.0 kb/s
Channel(s) : 2 channels
Sampling rate : 44.1 kHz
Bit depth : 16 bits
Stream size : 9.16 MiB (1%)
Language : English (United States)

Tifa's Ruin
触手と敗北とティ○ァ

Год выпуска: 2015
Жанр: parody, big breast, rape, oral, anal, paizuri, group, tentacle
Серии: ep. 1 of 1
Продолжительность: 17mn
Цензура: Есть во всех файлах

Озвучка: Японская оригинальная

Студия: FreespaceP

Описание:
Гуглоперевод! Tifa keeps being captured and being insulted by men. Eventually, due to the effect of medicine, it will fall into a nightmare... Tyua which continues seeded as instinct in Morbol... Express numerous tentacles in full videos, engaging in the vagina...

Created by FreespaceP
Voiced by Sagami
Music by Amacha no Ongaku Koubou / Rengoku Teien

http://www.dlsite.com/ecchi-eng/work/=/product_id/RE155922.html

Качество видео: WEB-DL
Разрешение видео: 576p
Формат видео: WMV
Видео: 800-600, 4-3, 30 fps, VC-1 / WMV-3, 6011 kbps
Аудио: jpn, WMA, Stereo, 44.1 KHz, 64 kbps
General
Complete name : 03. Tifa's ruin [367073D7] (2015).wmv
Format : Windows Media
File size : 750 MiB
Duration : 17 min 12 s
Overall bit rate mode : Variable
Overall bit rate : 6 089 kb/s
Maximum Overall bit rate : 6 075 kb/s
Encoded date : UTC 2015-05-24 06:45:54.000
Writing application : Flip4Mac WMV Export Component for QuickTime (Mac) 3356ༀ

Video
ID : 2
Format : VC-1
Format profile : Main
Codec ID : WMV3
Codec ID/Info : Windows Media Video 9
Codec ID/Hint : WMV3
Description of the codec : Windows Media Video V9 - 800 x 600, 30.00 fps, Q=100 (VBR)
Duration : 17 min 12 s
Bit rate : 6 011 kb/s
Width : 800 pixels
Height : 600 pixels
Display aspect ratio : 4:3
Frame rate : 30.000 FPS
Color space : YUV
Chroma subsampling : 4:2:0
Bit depth : 8 bits
Scan type : Progressive
Compression mode : Lossy
Bits/(Pixel*Frame) : 0.417
Stream size : 740 MiB (99%)
Language : English (United States)

Audio
ID : 1
Format : WMA
Format version : Version 2
Codec ID : 161
Codec ID/Info : Windows Media Audio
Description of the codec : Windows Media Audio V9 Standard - 64 kbps, 44 kHz, 16 bit, Stereo (CBR)
Duration : 17 min 12 s
Bit rate mode : Variable
Bit rate : 64.0 kb/s
Channel(s) : 2 channels
Sampling rate : 44.1 kHz
Bit depth : 16 bits
Stream size : 7.88 MiB (1%)
Language : English (United States)


Трекер:  [ 01-Сен-2017 14:40 ]

  

Скачать .torrent

Размер .torrent файла 14 KB


Размер: 2.61 GB
Хэш (hash) релиза: 066a6f0b827bb5074317ec5196dd29d86694d0bb

Еще никто не оставлял запись к записи скачать торрент Netorare Films: The Eve of T*fa's Execution, Final F*ckasy Heaven, Tifa's Ruin . Будь первым!

!Обратная связь