Скачать через торрент Весёлые детки-таблетки! Smile Precure! бесплатно Аниме Все серии на русском torrent

Если у вас наблюдаются проблемы со скриншотами, переходом по ссылками, скачиванием торрентов - проблемы в блокировщике рекламы AdBlock. #хорошегоДня!


Статистика раздачи
Размер:  341 MB   |    Зарегистрирован:  19 дней   |    .torrent скачан:  6 раз   |   
Раздают:  1  
   
Загрузка...
 
Автор Сообщение

Galfimbul

avatar Galfimbul


Весёлые детки-таблетки! / Smile Precure! (Pretty Cure) / Глиттер Форс! / Хорошенькое лекарство - Улыбающиеся Прикюа

Страна: Япония/США
Год выпуска: 2012
Жанр: приключения, махо-сёдзё, сёдзё
Тип: TV
Продолжительность: ~25 мин. серия
Режиссер: Оцука Такаси
Студия: Toei Animation
Возрастное ограничение (РФ) 6+

Описание: История расскажет нам про команду из пяти очаровательных девчонок. Совсем недавно эти молодые девочки узнали, что они являются суперотрядом под названием Глиттер Сила. Их цель защищать свой городок от нечисти.

Доп. информация: Вниманию! Версия Нефликса,.Американская версия! присутствует уникальные фрагменты, из оригинала содержится 90%. так же содержится иной опенинг и эндинг

Качество: SATRip
Тип релиза: Без хардсаба
Формат видео: AVI
Релиз/Автор рипа: TRAY_MAX
Совместимость с бытовыми плеерами: Да
Видео: Xvid 720x400 25fps 1800kbps
Аудио: AC3 48000Hz stereo 192kbps Язык Русский (в составе контейнера) ; Озвучка: Дубляж, Телеканал Gulli Girl
GeneralComplete name : D:\TorrentsDLW\Мои релизы\Весёлые детки-таблетки! Сезон 1-й 1-я серия.aviFormat : AVIFormat/Info : Audio Video InterleaveFile size : 341 MiBDuration : 23 min 47 sOverall bit rate : 2 001 kb/sWriting application : VirtualDubMod 1.5.10.3 | www.virtualdub-fr.org || (build 2550/release)Writing library : VirtualDubMod build 2550/release

VideoID : 0Format : MPEG-4 VisualFormat profile : Advanced Simple@L5Format settings, BVOP : 2Format settings, QPel : NoFormat settings, GMC : No warppointsFormat settings, Matrix : Default (H.263)Codec ID : XVIDCodec ID/Hint : XviDDuration : 23 min 47 sBit rate : 1 799 kb/sWidth : 720 pixelsHeight : 400 pixelsDisplay aspect ratio : 16:9Frame rate : 25.000 FPSColor space : YUVChroma subsampling : 4:2:0Bit depth : 8 bitsScan type : ProgressiveCompression mode : LossyBits/(Pixel*Frame) : 0.250Stream size : 306 MiB (90%)Writing library : XviD 1.2.1 (UTC 2008-12-04)

AudioID : 1Format : AC-3Format/Info : Audio Coding 3Mode extension : CM (complete main)Format settings, Endianness : BigCodec ID : 2000Duration : 23 min 47 sBit rate mode : ConstantBit rate : 192 kb/sChannel(s) : 2 channelsChannel positions : Front: L RSampling rate : 48.0 kHzFrame rate : 31.250 FPS (1536 spf)Bit depth : 16 bitsCompression mode : LossyStream size : 32.7 MiB (10%)Alignment : Split accross interleavesInterleave, duration : 40 ms (1.00 video frame)Interleave, preload duration : 500 ms
01. Захватывающее начало


Трекер:  [ 01-Сен-2017 14:30 ]

  

Скачать .torrent

Размер .torrent файла 14 KB


Размер: 341 MB
Хэш (hash) релиза: 2910d39c09440ea09ee12b0ff9e25f37714c138c
Подписка на обновления:

Еще никто не оставлял запись к записи скачать торрент Весёлые детки-таблетки! Smile Precure! . Будь первым!

!Обратная связь