Rough Night torrent

, , - AdBlock. #!


1.18 GB   |    :  23    |    .torrent :  5    |   
1  
   
...
 

Galfimbul

avatar Galfimbul


/ Rough Night


5.482 / 10 5.50 / 10
: 2017
:
:
: 01:40:50

: (iTunes)
:
C: , ,
:
: , .
: , , .
:
:
: , ,
:
: , , , , , . , , , ,

: $20 000 000
: $22 062 200
: + $22 994 571 = $45 056 771
: $2 394 557

: 15 2017
(): 15 2017, WDSSPR

: ? , . - , . : WEB-DL 1080p
: WEB-DLRip
: SD (480p)
: M4V
: H.264, 640x356 852356, 2.40:1, 1 300 Kbps, 23.976 (24000/1001) fps

1: / (iTunes), AAC / 2.0 / 128 Kbps / 48.0 KHz
2: / , AAC / 2.0 / 128 Kbps / 48.0 KHz
3: / (iTunes), AAC / 2.0 / 128 Kbps / 48.0 KHz

1:
2:
3:
Sort Name: Rough Night
XID: Apple:vendor_id:2016-975912
contentID: 1238392746
Copyright: 2017 Paulilu Productions
Screenwriters: , .
Producers: , , .
Director:
Cast: , , , , , . , , , ,
Studio: Paulilu Productions
Rating: 5
Long Description: ? , . - , .
Description: ? , .
Release Date: 2017-09-20T07:00:00Z
Genre: Comedy
Artist: Lucia Aniello
Name: Rough Night
General
Complete name : /Users/imac/HandBrake/Rough.Night.(480p).(pk).m4v
Format : MPEG-4
Codec ID : M4V (M4V /M4A /mp42/isom)
File size : 1.18 GiB
Duration : 1h 40mn
Overall bit rate mode : Variable
Overall bit rate : 1 681 Kbps
Movie name : Rough Night
Performer : Lucia Aniello
Director :
Actor : / / / / / . / / / /
Screenplay by : / .
Producer : / / .
Production studio : Paulilu Productions
Genre : Comedy
ContentType : Short Film
Description : ? , .
Recorded date : UTC 2017-09-20 07:00:00
Encoded date : UTC 2017-09-01 10:14:56
Tagged date : UTC 2017-09-01 10:16:34
Copyright : 2017 Paulilu Productions
Cover : Yes
Rating : None
Title/Sort : Rough Night
LongDescription : ? , . - , .
AppleStoreCatalogID : 1238392746
Vendor : Apple:vendor_id:2016-975912
ContentRating : mpaa|R|400|

Video #1
ID : 1
Format : AVC
Format/Info : Advanced Video Codec
Format profile : Baseline@L3
Format settings, CABAC : No
Format settings, ReFrames : 2 frames
Codec ID : avc1
Codec ID/Info : Advanced Video Coding
Duration : 1h 40mn
Bit rate : 1 300 Kbps
Width : 640 pixels
Height : 356 pixels
Display aspect ratio : 2.40:1
Frame rate mode : Variable
Frame rate : 23.976 (24000/1001) fps
Minimum frame rate : 23.974 fps
Maximum frame rate : 23.981 fps
Color space : YUV
Chroma subsampling : 4:2:0
Bit depth : 8 bits
Scan type : Progressive
Bits/(Pixel*Frame) : 0.238
Stream size : 935 MiB (77%)
Title : Main Program
Writing library : x264 core 148 r2708 86b7198
Encoding settings : cabac=0 / ref=2 / deblock=1:0:0 / analyse=0x1:0x111 / me=umh / subme=6 / psy=1 / psy_rd=1.00:0.00 / mixed_ref=1 / me_range=16 / chroma_me=1 / trellis=0 / 8x8dct=0 / cqm=0 / deadzone=21,11 / fast_pskip=1 / chroma_qp_offset=-2 / threads=11 / lookahead_threads=1 / sliced_threads=0 / nr=0 / decimate=1 / interlaced=0 / bluray_compat=0 / constrained_intra=0 / bframes=0 / weightp=0 / keyint=240 / keyint_min=24 / scenecut=40 / intra_refresh=0 / rc_lookahead=40 / rc=2pass / mbtree=1 / bitrate=1300 / ratetol=1.0 / qcomp=0.60 / qpmin=0 / qpmax=69 / qpstep=4 / cplxblur=20.0 / qblur=0.5 / vbv_maxrate=5000 / vbv_bufsize=5000 / nal_hrd=none / filler=0 / ip_ratio=1.40 / aq=1:1.00
Language : English
Encoded date : UTC 2017-09-01 10:14:56
Tagged date : UTC 2017-09-01 10:15:00
Color range : Limited
Color primaries : BT.709
Transfer characteristics : BT.709
Matrix coefficients : BT.709
Menus : 8,9

Video #2
ID : 9
Format : JPEG
Codec ID : jpeg
Duration : 1h 40mn
Bit rate mode : Variable
Bit rate : 746 bps
Width : 640 pixels
Height : 267 pixels
Display aspect ratio : 2.40:1
Frame rate mode : Variable
Frame rate : 0.003 fps
Minimum frame rate : 0.002 fps
Maximum frame rate : 0.006 fps
Color space : YUV
Chroma subsampling : 4:2:0
Bit depth : 8 bits
Compression mode : Lossy
Bits/(Pixel*Frame) : 1.455
Stream size : 485 KiB (0%)
Title : Chapter Images
Language : English
Default : No
Encoded date : UTC 2017-09-01 10:15:28
Tagged date : UTC 2017-09-01 10:15:28
Menu For : 1

Audio #1
ID : 2
Format : AAC
Format/Info : Advanced Audio Codec
Format profile : LC
Codec ID : 40
Duration : 1h 40mn
Bit rate mode : Variable
Bit rate : 125 Kbps
Maximum bit rate : 206 Kbps
Channel(s) : 2 channels
Channel positions : Front: L R
Sampling rate : 48.0 KHz
Frame rate : 46.875 fps (1024 SPF)
Compression mode : Lossy
Stream size : 90.1 MiB (7%)
Title : Russian Stereo
Language : Russian
Default : Yes
Alternate group : 1
Encoded date : UTC 2017-09-01 10:14:56
Tagged date : UTC 2017-09-01 10:15:23
Subtitles : 5,6

Audio #2
ID : 3
Format : AAC
Format/Info : Advanced Audio Codec
Format profile : LC
Codec ID : 40
Duration : 1h 40mn
Bit rate mode : Variable
Bit rate : 124 Kbps
Maximum bit rate : 226 Kbps
Channel(s) : 2 channels
Channel positions : Front: L R
Sampling rate : 48.0 KHz
Frame rate : 46.875 fps (1024 SPF)
Compression mode : Lossy
Stream size : 89.8 MiB (7%)
Title : English Stereo
Language : English
Default : No
Alternate group : 1
Encoded date : UTC 2017-09-01 10:14:56
Tagged date : UTC 2017-09-01 10:15:23

Audio #3
ID : 4
Format : AAC
Format/Info : Advanced Audio Codec
Format profile : LC
Codec ID : 40
Duration : 1h 40mn
Bit rate mode : Variable
Bit rate : 125 Kbps
Maximum bit rate : 184 Kbps
Channel(s) : 2 channels
Channel positions : Front: L R
Sampling rate : 48.0 KHz
Frame rate : 46.875 fps (1024 SPF)
Compression mode : Lossy
Stream size : 90.4 MiB (7%)
Title : Ukrainian Stereo
Language : Ukrainian
Default : No
Alternate group : 1
Encoded date : UTC 2017-09-01 10:14:56
Tagged date : UTC 2017-09-01 10:15:23

Text #1
ID : 5
Format : Timed Text
Muxing mode : sbtl
Codec ID : tx3g
Duration : 1h 34mn
Bit rate mode : Variable
Bit rate : 1 bps
Stream size : 386 Bytes (0%)
Title : Russian forced
Language : Russian
Default : Yes
Forced : Yes
Alternate group : 2
Encoded date : UTC 2017-09-01 10:14:56
Tagged date : UTC 2017-09-01 10:15:18
Subtitles For : 2
Full Alternative : 6

Text #2
ID : 6
Format : Timed Text
Muxing mode : sbtl
Codec ID : tx3g
Duration : 1h 39mn
Bit rate mode : Variable
Bit rate : 138 bps
Stream size : 101 KiB (0%)
Title : Russian full
Language : Russian
Default : No
Forced : No
Alternate group : 2
Encoded date : UTC 2017-09-01 10:14:56
Tagged date : UTC 2017-09-01 10:15:23
Subtitles For : 2
Forced Alternative : 5

Text #3
ID : 7
Format : Timed Text
Muxing mode : sbtl
Codec ID : tx3g
Duration : 1h 39mn
Bit rate mode : Variable
Bit rate : 115 bps
Stream size : 84.5 KiB (0%)
Title : English full
Language : English
Default : No
Forced : No
Alternate group : 2
Encoded date : UTC 2017-09-01 10:14:56
Tagged date : UTC 2017-09-01 10:15:23

Menu #1
00:00:00.000 : Chapter 1
00:04:44.117 : Chapter 2
00:08:04.818 : Chapter 3
00:15:18.668 : Chapter 4
00:25:45.753 : Chapter 5
00:34:26.606 : Chapter 6
00:39:51.097 : Chapter 7
00:43:10.963 : Chapter 8
00:46:25.825 : Chapter 9
00:49:09.071 : Chapter 10
00:53:43.637 : Chapter 11
00:59:36.948 : Chapter 12
01:02:53.895 : Chapter 13
01:11:56.187 : Chapter 14
01:22:54.845 : Chapter 15
01:30:57.953 : Chapter 16

Menu #2
ID : 8
Codec ID : text
Duration : 1h 40mn
Language : English
Encoded date : UTC 2017-09-01 10:15:23
Tagged date : UTC 2017-09-01 10:15:23
Menu For : 1
00:00:00.000 : Chapter 1
00:04:44.117 : Chapter 2
00:08:04.818 : Chapter 3
00:15:18.668 : Chapter 4
00:25:45.753 : Chapter 5
00:34:26.606 : Chapter 6
00:39:51.097 : Chapter 7
00:43:10.963 : Chapter 8
00:46:25.825 : Chapter 9
00:49:09.071 : Chapter 10
00:53:43.637 : Chapter 11
00:59:36.948 : Chapter 12
01:02:53.895 : Chapter 13
01:11:56.187 : Chapter 14
01:22:54.845 : Chapter 15
01:30:57.953 : Chapter 16
Bit rate mode : VBR
x264 [info]: frame I:2263 Avg QP:15.01 size: 33682
x264 [info]: frame P:142792 Avg QP:17.95 size: 6335
x264 [info]: mb I I16..4: 16.9% 0.0% 83.1%
x264 [info]: mb P I16..4: 0.8% 0.0% 2.4% P16..4: 40.6% 20.9% 8.8% 0.0% 0.0% skip:26.6%
x264 [info]: coded y,uvDC,uvAC intra: 70.3% 83.0% 67.3% inter: 23.5% 21.7% 8.8%
x264 [info]: i16 v,h,dc,p: 41% 23% 6% 30%
x264 [info]: i4 v,h,dc,ddl,ddr,vr,hd,vl,hu: 37% 15% 11% 5% 7% 9% 5% 7% 4%
x264 [info]: i8c dc,h,v,p: 43% 16% 30% 10%
x264 [info]: ref P L0: 73.8% 26.2%
x264 [info]: kb/s:1297.01
Apple TV, iPad, iPhone, iPod Touch.
Windows VLC media player

 ·  , , FAQ-
:  [ 01--2017 13:42 ]

  

.torrent

.torrent 24 KB


: 1.18 GB
(hash) : f0451e5dacb578ecbf5844c72bb2a15d55931ff9
··
...

Rough Night . !

!