Скачать через торрент [iPad] Чудо-женщина Wonder Woman бесплатно русская версия torrent активатор

Если у вас наблюдаются проблемы со скриншотами, переходом по ссылками, скачиванием торрентов - проблемы в блокировщике рекламы AdBlock. #хорошегоДня!


Статистика раздачи
Размер:  2.55 GB   |    Зарегистрирован:  24 дня   |    .torrent скачан:  18 раз   |   
Раздают:  1   Качают:  1  
   
Загрузка...
 
Автор Сообщение

Galfimbul

avatar Galfimbul


Чудо-женщина / Wonder Woman
«Справедливость наступит вместе с ней»

6.877 / 10 8.00 / 10
Год выпуска: 2017
Страна: США, Китай, Гонконг, Великобритания, Италия, Канада, Новая Зеландия
Жанр: Фантастика, фэнтези, боевик, приключения, военный
Продолжительность: 02:21:12

Перевод: Дублированный (iTunes)
Оригинальная аудиодорожка: Есть
Cубтитры: Русские форсированные, Украинские форсированные, Русские, Английские
Режиссёр: Пэтти Дженкинс
Сценарий: Аллан Хейнберг, Уильям М. Марстон, Зак Снайдер
Продюсер: Джон Берг, Уэсли Коллер, Томми Гормли
Оператор: Мэттью Дженсен
Композитор: Руперт Грегсон-Уильямс
Художник: Алин Бонетто, Стив Картер, Джеймс Коллинз
Монтаж: Мартин Уолш
В ролях: Галь Гадот, Крис Пайн, Конни Нильсен, Робин Райт, Дэнни Хьюстон, Дэвид Тьюлис, Саид Тагмауи, Юэн Бремнер, Юджин «Храбрый камень», Люси Дэвис

Бюджет: $149 000 000
Сборы в США: $406 193 262
Сборы в мире: + $400 000 000 = $806 193 262
Сборы в России: $8 176 049

Мировая премьера: 15 мая 2017
Премьера (РФ): 1 июня 2017, «Каро-Премьер»

Описание: Перед тем как стать Чудо-Женщиной, она была Дианой — принцессой амазонок, обученной быть непобедимой воительницей. И когда на берегах ограждённого от внешнего мира райского острова, который служил ей родиной, терпит крушение американский пилот и рассказывает о серьёзном конфликте, бушующем во внешнем мире, Диана покидает свой дом, чтобы справиться с этой угрозой. И там, сражаясь бок о бок с человеком в войне за мир, Диана обнаружит всю полноту своей власти… и своё истинное предназначение.Качество исходника: WEB-DL 1080p
Качество: WEB-DLRip
Тип: SD (576p)
Контейнер: M4V
Видео: H.264, 1024x432, 2.40:1, 2 200 Kbps, 23.976 fps

Аудио 1: Русский/Дублированный (iTunes), AAC / 2.0 / 128 Kbps / 48.0 KHz
Аудио 2: Английский/Оригинальная дорожка , AAC / 2.0 / 128 Kbps / 48.0 KHz
Аудио 3: Украинский/Дублированный (iTunes), AAC / 2.0 / 128 Kbps / 44.1 KHz

Субтитры 1: Русские форсированные
Субтитры 2: Украинские форсированные
Субтитры 3: Русские полные
Субтитры 4: Английские полные
Sort Name: Wonder Woman
XID: Apple:vendor_id:2017-102383
contentID: 1235765633
Copyright: © 2017 Warner Bros. Entertainment Inc. and RatPac-Dune Entertainment LLC. WONDER WOMAN and all related characters and elements are trademarks of and copyright DC Comics.
Screenwriters: Аллан Хейнберг, Уильям М. Марстон, Зак Снайдер
Producers: Джон Берг, Уэсли Коллер, Томми Гормли
Director: Пэтти Дженкинс
Cast: Галь Гадот, Крис Пайн, Конни Нильсен, Робин Райт, Дэнни Хьюстон, Дэвид Тьюлис, Саид Тагмауи, Юэн Бремнер, Юджин «Храбрый камень», Люси Дэвис
Studio: Warner Bros.
Rating Annotation: Rated PG-13 for sequences of violence and action, and some suggestive content.
Rating: 4
Long Description: Перед тем как стать Чудо-Женщиной, она была Дианой - принцессой амазонок, обученной быть непобедимой воительницей. И когда на берегах ограждённого от внешнего мира райского острова, который служил ей родиной, терпит крушение американский пилот и рассказывает о серьёзном конфликте, бушующем во внешнем мире, Диана покидает свой дом, чтобы справиться с этой угрозой. И там, сражаясь бок о бок с человеком в войне за мир, Диана обнаружит всю полноту своей власти… и своё истинное предназначение.
Description: Принцесса Амазонок приходит в мир мужчин, чтобы стать величайшей из женщин-супергероев.
Release Date: 2017-05-15T08:00:00Z
Genre: Action & Adventure
Artist: Patty Jenkins
Name: Wonder Woman (2017)
General
Complete name : /Users/imac/HandBrake/Wonder.Woman.(SD).(pk).m4v
Format : MPEG-4
Codec ID : M4V
File size : 2.55 GiB
Duration : 2h 21mn
Overall bit rate mode : Variable
Overall bit rate : 2 587 Kbps
Movie name : Wonder Woman (2017)
Performer : Patty Jenkins
Director : Пэтти Дженкинс
Actor : Галь Гадот / Крис Пайн / Конни Нильсен / Робин Райт / Дэнни Хьюстон / Дэвид Тьюлис / Саид Тагмауи / Юэн Бремнер / Юджин «Храбрый камень» / Люси Дэвис
Screenplay by : Аллан Хейнберг / Уильям М. Марстон / Зак Снайдер
Producer : Джон Берг / Уэсли Коллер / Томми Гормли
Production studio : Warner Bros.
Genre : Action & Adventure
ContentType : Short Film
Description : Принцесса Амазонок приходит в мир мужчин, чтобы стать величайшей из женщин-супергероев.
Recorded date : UTC 2017-05-15 08:00:00
Encoded date : UTC 2017-08-31 16:05:50
Tagged date : UTC 2017-08-31 16:07:18
Copyright : © 2017 Warner Bros. Entertainment Inc. and RatPac-Dune Entertainment LLC. WONDER WOMAN and all related characters and elements are trademarks of and copyright DC Comics.
Cover : Yes
Rating : None
Title/Sort : Wonder Woman
LongDescription : Перед тем как стать Чудо-Женщиной, она была Дианой - принцессой амазонок, обученной быть непобедимой воительницей. И когда на берегах ограждённого от внешнего мира райского острова, который служил ей родиной, терпит крушение американский пилот и рассказывает о серьёзном конфликте, бушующем во внешнем мире, Диана покидает свой дом, чтобы справиться с этой угрозой. И там, сражаясь бок о бок с человеком в войне за мир, Диана обнаружит всю полноту своей власти… и своё истинное предназначение.
AppleStoreCatalogID : 1235765633
Vendor : Apple:vendor_id:2017-102383
ContentRating : mpaa|PG-13|300|Rated PG-13 for sequences of violence and action, and some suggestive content.

Video #1
ID : 1
Format : AVC
Format/Info : Advanced Video Codec
Format profile : High@L3.1
Format settings, CABAC : Yes
Format settings, ReFrames : 9 frames
Codec ID : avc1
Codec ID/Info : Advanced Video Coding
Duration : 2h 21mn
Source duration : 2h 21mn
Bit rate : 2 200 Kbps
Width : 1 024 pixels
Height : 432 pixels
Display aspect ratio : 2.40:1
Frame rate mode : Variable
Frame rate : 23.976 fps
Minimum frame rate : 23.974 fps
Maximum frame rate : 23.981 fps
Color space : YUV
Chroma subsampling : 4:2:0
Bit depth : 8 bits
Scan type : Progressive
Bits/(Pixel*Frame) : 0.207
Stream size : 2.17 GiB (85%)
Source stream size : 2.17 GiB (85%)
Title : Main Program
Writing library : x264 core 148 r2708 86b7198
Encoding settings : cabac=1 / ref=9 / deblock=1:0:0 / analyse=0x3:0x113 / me=umh / subme=9 / psy=1 / psy_rd=1.00:0.00 / mixed_ref=1 / me_range=32 / chroma_me=1 / trellis=1 / 8x8dct=1 / cqm=0 / deadzone=21,11 / fast_pskip=1 / chroma_qp_offset=-2 / threads=13 / lookahead_threads=1 / sliced_threads=0 / nr=0 / decimate=1 / interlaced=0 / bluray_compat=0 / constrained_intra=0 / bframes=6 / b_pyramid=2 / b_adapt=2 / b_bias=0 / direct=1 / weightb=1 / open_gop=0 / weightp=2 / keyint=240 / keyint_min=24 / scenecut=40 / intra_refresh=0 / rc_lookahead=40 / rc=2pass / mbtree=1 / bitrate=2200 / ratetol=1.0 / qcomp=0.60 / qpmin=0 / qpmax=69 / qpstep=4 / cplxblur=20.0 / qblur=0.5 / ip_ratio=1.40 / aq=1:1.00
Language : English
Encoded date : UTC 2017-08-31 16:05:50
Tagged date : UTC 2017-08-31 16:05:56
Color range : Limited
Color primaries : BT.709
Transfer characteristics : BT.709
Matrix coefficients : BT.709

Video #2
ID : 10
Format : JPEG
Codec ID : jpeg
Duration : 2h 21mn
Bit rate mode : Variable
Bit rate : 316 bps
Width : 640 pixels
Height : 270 pixels
Display aspect ratio : 2.40:1
Frame rate mode : Constant
Frame rate : 0.001 fps
Color space : YUV
Chroma subsampling : 4:2:0
Bit depth : 8 bits
Compression mode : Lossy
Bits/(Pixel*Frame) : 1.829
Stream size : 463 KiB (0%)
Title : Chapter Images
Language : English
Encoded date : UTC 2017-08-31 16:06:03
Tagged date : UTC 2017-08-31 16:06:03

Audio #1
ID : 2
Format : AAC
Format/Info : Advanced Audio Codec
Format profile : LC
Codec ID : 40
Duration : 2h 21mn
Bit rate mode : Variable
Bit rate : 126 Kbps
Maximum bit rate : 168 Kbps
Channel(s) : 2 channels
Channel positions : Front: L R
Sampling rate : 48.0 KHz
Compression mode : Lossy
Stream size : 127 MiB (5%)
Title : Russian Stereo
Language : Russian
Encoded date : UTC 2017-08-31 16:05:50
Tagged date : UTC 2017-08-31 16:06:00

Audio #2
ID : 3
Format : AAC
Format/Info : Advanced Audio Codec
Format profile : LC
Codec ID : 40
Duration : 2h 21mn
Bit rate mode : Variable
Bit rate : 126 Kbps
Maximum bit rate : 173 Kbps
Channel(s) : 2 channels
Channel positions : Front: L R
Sampling rate : 48.0 KHz
Compression mode : Lossy
Stream size : 127 MiB (5%)
Title : English Stereo
Language : English
Encoded date : UTC 2017-08-31 16:05:50
Tagged date : UTC 2017-08-31 16:06:00

Audio #3
ID : 4
Format : AAC
Format/Info : Advanced Audio Codec
Format profile : LC
Codec ID : 40
Duration : 2h 21mn
Bit rate mode : Variable
Bit rate : 125 Kbps
Maximum bit rate : 183 Kbps
Channel(s) : 2 channels
Channel positions : Front: L R
Sampling rate : 44.1 KHz
Compression mode : Lossy
Stream size : 127 MiB (5%)
Title : Ukrainian Stereo
Language : Ukrainian
Encoded date : UTC 2017-08-31 16:05:50
Tagged date : UTC 2017-08-31 16:05:59

Text #1
ID : 5
Format : Timed Text
Muxing mode : sbtl
Codec ID : tx3g
Duration : 1h 13mn
Bit rate mode : Variable
Bit rate : 2 bps
Stream size : 1.05 KiB (0%)
Title : Russian forced
Language : Russian
Encoded date : UTC 2017-08-31 16:05:50
Tagged date : UTC 2017-08-31 16:05:51

Text #2
ID : 6
Format : Timed Text
Muxing mode : sbtl
Codec ID : tx3g
Duration : 2h 10mn
Bit rate mode : Variable
Bit rate : 1 bps
Stream size : 1.16 KiB (0%)
Title : Ukrainian forced
Language : Ukrainian
Encoded date : UTC 2017-08-31 16:05:50
Tagged date : UTC 2017-08-31 16:05:52

Text #3
ID : 7
Format : Timed Text
Muxing mode : sbtl
Codec ID : tx3g
Duration : 2h 10mn
Bit rate mode : Variable
Bit rate : 90 bps
Stream size : 85.9 KiB (0%)
Title : Russian full
Language : Russian
Encoded date : UTC 2017-08-31 16:05:50
Tagged date : UTC 2017-08-31 16:05:52

Text #4
ID : 8
Format : Timed Text
Muxing mode : sbtl
Codec ID : tx3g
Duration : 2h 10mn
Bit rate mode : Variable
Bit rate : 55 bps
Stream size : 52.3 KiB (0%)
Title : English full
Language : English
Encoded date : UTC 2017-08-31 16:05:50
Tagged date : UTC 2017-08-31 16:05:52

Menu #1
00:00:00.000 : 1
00:10:24.000 : 2
00:23:10.000 : 3
00:33:08.000 : 4
00:43:53.000 : 5
00:54:23.000 : 6
01:07:36.000 : 7
01:22:28.000 : 8
01:34:00.000 : 9
01:45:35.000 : 10
01:57:41.000 : 11
02:10:38.000 : 12

Menu #2
ID : 9
Codec ID : text
Duration : 2h 21mn
Language : English
Encoded date : UTC 2017-08-31 16:06:00
Tagged date : UTC 2017-08-31 16:06:00
00:00:00.000 : 1
00:10:24.000 : 2
00:23:10.000 : 3
00:33:08.000 : 4
00:43:53.000 : 5
00:54:23.000 : 6
01:07:36.000 : 7
01:22:28.000 : 8
01:34:00.000 : 9
01:45:35.000 : 10
01:57:41.000 : 11
02:10:38.000 : 12
Bit rate mode : VBR
x264 [info]: frame I:1928  Avg QP:13.59  size: 74033
x264 [info]: frame P:54675 Avg QP:16.48  size: 22678
x264 [info]: frame B:146534 Avg QP:19.05  size:  6462
x264 [info]: consecutive B-frames:  3.2%  6.4%  7.9% 58.2%  9.3% 11.3%  3.8%
x264 [info]: mb I  I16..4:  8.8% 66.3% 25.0%
x264 [info]: mb P  I16..4:  1.7% 10.3%  2.6%  P16..4: 34.3% 27.8% 16.2%  0.0%  0.0%    skip: 7.1%
x264 [info]: mb B  I16..4:  0.1%  1.1%  0.4%  B16..8: 38.5% 11.4%  3.3%  direct: 5.1%  skip:40.1%  L0:40.5% L1:46.1% BI:13.4%
x264 [info]: 8x8 transform intra:69.1% inter:65.5%
x264 [info]: coded y,uvDC,uvAC intra: 84.9% 87.7% 67.8% inter: 28.2% 22.0% 3.7%
x264 [info]: i16 v,h,dc,p: 26% 14%  8% 51%
x264 [info]: i8 v,h,dc,ddl,ddr,vr,hd,vl,hu:  9%  9%  5% 10% 14% 13% 14% 12% 14%
x264 [info]: i4 v,h,dc,ddl,ddr,vr,hd,vl,hu:  8%  8%  3%  9% 15% 14% 15% 12% 15%
x264 [info]: i8c dc,h,v,p: 42% 23% 17% 18%
x264 [info]: Weighted P-Frames: Y:3.5% UV:1.9%
x264 [info]: ref P L0: 55.3% 10.6% 15.5%  5.7%  4.2%  3.0%  2.6%  1.6%  1.5%  0.1%  0.0%
x264 [info]: ref B L0: 81.4%  9.1%  4.0%  2.0%  1.3%  1.0%  0.8%  0.3%
x264 [info]: ref B L1: 96.3%  3.7%
x264 [info]: kb/s:2199.60
Релиз подготовлен для просмотра на Apple TV, iPad, iPhone, iPod Touch.
Для просмотра данного релиза на компьютере с ОС Windows рекомендуется использовать VLC media player

Трекер:  [ 31-Авг-2017 19:42 ]

  

Скачать .torrent

Размер .torrent файла 26 KB


Размер: 2.55 GB
Хэш (hash) релиза: 1635b1e21a616b3b176a8d18e88497a7fbc04047

Еще никто не оставлял запись к записи скачать торрент [iPad] Чудо-женщина Wonder Woman . Будь первым!

!Обратная связь