Скачать порно через торрент Bokunyu-Nurse's HAPPY HOSPITAL UnionPeer.org бесплатно онлайн HD качество

Скачать новое порно 2015, 2014 новинки через торрент UnionPeer.org

Порно торрент бесплатно ЮнионПир.орг

Если у вас наблюдаются проблемы со скриншотами, переходом по ссылками, скачиванием торрентов - проблемы в блокировщике рекламы AdBlock. #хорошегоДня!


Статистика раздачи
Размер:  1.14 GB   |    Зарегистрирован:  2 месяца 20 дней   |    .torrent скачан:  390 раз   |   
Раздают:  1  
   
Загрузка...
 
Автор Сообщение

Galfimbul

avatar Galfimbul


Bokunyu-Nurse's HAPPY HOSPITAL
爆乳ナースのハッピーホスピタル

Год выпуска: 2016
Жанр: hospital, nurse, big breast, oral, paizuri, creampie
Серии: ep. 1 of 1
Продолжительность: 35mn
Цензура: Есть во всех файлах

Озвучка: Японская оригинальная
Субтитры: Японские встроенные неотключаемые (хардсаб)
Субтитры: Китайские [yosakura.sub] внешние ASS

Студия: anzuworks

Описание: Welcome to the best clinic ever! For the patient who wants to be pampered by a splendid big-breasted nurse, anzuworks's animation is a dream cum true! Putting the "H" in Hospital Life!

CV: Ao Inukai

http://www.dlsite.com/ecchi-eng/work/=/product_id/RE182386.html

Качество видео: WEB-DL
Разрешение видео: 720p
Формат видео: WMV
Видео: 1280-720, 16-9, 30 fps, VC-1/WMV3, 4493 kbps
Аудио: jpn, WMA, Stereo, 44.1 KHz, 192 kbps
General
Complete name : Bokunyu-nurse's HAPPY HOSPITAL [E5A2C0C6].wmv
Format : Windows Media
File size : 1.14 GiB
Duration : 34 min 36 s
Overall bit rate mode : Variable
Overall bit rate : 4 714 kb/s
Maximum Overall bit rate : 10.5 Mb/s
Encoded date : UTC 2016-08-13 04:08:09.567

Video
ID : 2
Format : VC-1
Format profile : MP@HL
Codec ID : WMV3
Codec ID/Info : Windows Media Video 9
Codec ID/Hint : WMV3
Description of the codec : Windows Media Video 9 - Professional
Duration : 34 min 36 s
Bit rate mode : Variable
Bit rate : 4 493 kb/s
Width : 1 280 pixels
Height : 720 pixels
Display aspect ratio : 16:9
Frame rate : 30.000 FPS
Color space : YUV
Chroma subsampling : 4:2:0
Bit depth : 8 bits
Scan type : Progressive
Compression mode : Lossy
Bits/(Pixel*Frame) : 0.163
Stream size : 1.09 GiB (95%)
NumberOfFrames : 62294

Audio
ID : 1
Format : WMA
Format version : Version 2
Codec ID : 161
Codec ID/Info : Windows Media Audio
Description of the codec : Windows Media Audio 9.2 - 192 kbps, 44 kHz, stereo 1-pass CBR
Duration : 34 min 36 s
Bit rate mode : Constant
Bit rate : 192 kb/s
Channel(s) : 2 channels
Sampling rate : 44.1 kHz
Bit depth : 16 bits
Stream size : 47.5 MiB (4%)
NumberOfFrames : 5590


Трекер:  [ 31-Авг-2017 12:30 ]

  

Скачать .torrent

Размер .torrent файла 12 KB


Размер: 1.14 GB
Хэш (hash) релиза: e99b627a6fdb5c9a381190584d799978c104b713

Еще никто не оставлял запись к записи скачать торрент Bokunyu-Nurse's HAPPY HOSPITAL . Будь первым!

!Обратная связь