Скачать порно через торрент To l ve-ru diary PEACH UnionPeer.org бесплатно онлайн HD качество

Скачать новое порно 2015, 2014 новинки через торрент UnionPeer.org

Порно торрент бесплатно ЮнионПир.орг

Если у вас наблюдаются проблемы со скриншотами, переходом по ссылками, скачиванием торрентов - проблемы в блокировщике рекламы AdBlock. #хорошегоДня!


Статистика раздачи
Размер:  2.82 GB   |    Зарегистрирован:  20 дней   |    .torrent скачан:  511 раз   |   
Раздают:  2   Качают:  1  
   
Загрузка...
 
Автор Сообщение

Galfimbul

avatar Galfimbul


To l_ve-ru diary PEACH (To love-ru, Momo Belia Deviluke)
と○ぶるだいあり~・ぴーち

Год выпуска: 2014
Жанр: parody, oral, handjob, swimsuit, creampie
Серии: ep. 1 of 1
Продолжительность: 1h 33mn
Цензура: Есть во всех файлах

Озвучка: Японская оригинальная
Субтитры: Китайские [yozakura.sub] внешние ASS

Студия: marmalade*star

Описание: Momo, the third princess of Devil*ke, urges Rito to train his sexual skills. She seems to be bold and in a strong attitude but in fact she is also a virgin. While his training progresses, their relationship gradually changes... 7 days of hentai under the pretext of gain experience.

Voiced by Natsuki Nogami

http://www.dlsite.com/ecchi-eng/work/=/product_id/RE138400.html

Качество видео: GAMErip
Разрешение видео: 480p
Формат видео: MP4
Видео: 640-480, 4-3, 30 fps, AVC, 3994 kbps
Аудио: jpn, AAC, Stereo, 44.1 KHz, 318 kbps
General
Unique ID : 210683799022846506243481023667205500033 (0x9E80394699DD25828BC9018DB682EC81)
Complete name : To l_ve-ru diary PEACH [89D4707B].mp4
Format : Matroska
Format version : Version 4 / Version 2
File size : 2.82 GiB
Duration : 1 h 33 min
Overall bit rate : 4 314 kb/s
Encoded date : UTC 2016-01-02 17:32:12
Writing application : mkvmerge v8.0.0 ('Til The Day That I Die') 64bit
Writing library : libebml v1.3.1 + libmatroska v1.4.2
FileExtension_Invalid : mkv mk3d mka mks

Video
ID : 1
Format : AVC
Format/Info : Advanced Video Codec
Format profile : Main@L4.1
Format settings, CABAC : Yes
Format settings, ReFrames : 3 frames
Codec ID : V_MPEG4/ISO/AVC
Duration : 1 h 33 min
Bit rate : 3 994 kb/s
Width : 640 pixels
Height : 480 pixels
Display aspect ratio : 4:3
Frame rate mode : Constant
Frame rate : 30.000 FPS
Standard : NTSC
Color space : YUV
Chroma subsampling : 4:2:0
Bit depth : 8 bits
Scan type : Progressive
Bits/(Pixel*Frame) : 0.433
Stream size : 2.61 GiB (93%)
Title : www.erokuni.net
Language : English
Default : Yes
Forced : No
Color range : Limited

Audio
ID : 2
Format : AAC
Format/Info : Advanced Audio Codec
Format profile : LC
Codec ID : A_AAC
Duration : 1 h 33 min
Bit rate : 318 kb/s
Channel(s) : 2 channels
Channel positions : Front: L R
Sampling rate : 44.1 kHz
Frame rate : 43.066 FPS (1024 spf)
Compression mode : Lossy
Stream size : 213 MiB (7%)
Title : www.erokuni.net
Language : English
Default : Yes
Forced : No
От Bupyc – больше длительность, без интерфейса игры, китайские субтитры.


Трекер:  [ 31-Авг-2017 03:50 ]

  

Скачать .torrent

Размер .torrent файла 15 KB


Размер: 2.82 GB
Хэш (hash) релиза: 8a374e5aac77b2b1ff93583a2ff1998036356177

Торренты, похожие на To l ve-ru diary PEACH скачать торрент

Форум Название Автор Размер S L Добавлен
Хентай, порно и эротические мультфильмы ·· To L*ve-ru Diary PEACH (marmalade*star) [cen] [2014 г., Straight, Blowjob, Handjob, Footjob, Tentacles, GameRip] [jap] [480p] Galfimbul 942682361899 MB 0 0 1406835042

22:30

31-Июл-14

Еще никто не оставлял запись к записи скачать торрент To l ve-ru diary PEACH . Будь первым!

!Обратная связь