Скачать через торрент [ATV3] Чудо-женщина Wonder Woman бесплатно русская версия torrent активатор

Если у вас наблюдаются проблемы со скриншотами, переходом по ссылками, скачиванием торрентов - проблемы в блокировщике рекламы AdBlock. #хорошегоДня!


Статистика раздачи
Размер:  5.71 GB   |    Зарегистрирован:  25 дней   |    .torrent скачан:  41 раз   |   
Раздают:  2  
   
Загрузка...
 
Автор Сообщение

Galfimbul

avatar Galfimbul


Чудо-женщина / Wonder Woman
«Справедливость наступит вместе с ней»

6.877 / 10 8.00 / 10
Год выпуска: 2017
Страна: США, Китай, Гонконг, Великобритания, Италия, Канада, Новая Зеландия
Жанр: Фантастика, фэнтези, боевик, приключения, военный
Продолжительность: 02:21:12

Перевод: Дублированный (iTunes)
Оригинальная аудиодорожка: Есть
Cубтитры: Русские форсированные, Украинские форсированные, Русские, Английские
Режиссёр: Пэтти Дженкинс
Сценарий: Аллан Хейнберг, Уильям М. Марстон, Зак Снайдер
Продюсер: Джон Берг, Уэсли Коллер, Томми Гормли
Оператор: Мэттью Дженсен
Композитор: Руперт Грегсон-Уильямс
Художник: Алин Бонетто, Стив Картер, Джеймс Коллинз
Монтаж: Мартин Уолш
В ролях: Галь Гадот, Крис Пайн, Конни Нильсен, Робин Райт, Дэнни Хьюстон, Дэвид Тьюлис, Саид Тагмауи, Юэн Бремнер, Юджин «Храбрый камень», Люси Дэвис

Бюджет: $149 000 000
Сборы в США: $406 193 262
Сборы в мире: + $400 000 000 = $806 193 262
Сборы в России: $8 176 049

Мировая премьера: 15 мая 2017
Премьера (РФ): 1 июня 2017, «Каро-Премьер»

Описание: Перед тем как стать Чудо-Женщиной, она была Дианой — принцессой амазонок, обученной быть непобедимой воительницей. И когда на берегах ограждённого от внешнего мира райского острова, который служил ей родиной, терпит крушение американский пилот и рассказывает о серьёзном конфликте, бушующем во внешнем мире, Диана покидает свой дом, чтобы справиться с этой угрозой. И там, сражаясь бок о бок с человеком в войне за мир, Диана обнаружит всю полноту своей власти… и своё истинное предназначение.Качество исходника: WEB-DL 1080p (BlueBird)
Качество: WEB-DL
Тип: HD (1080p)
Контейнер: M4V
Видео: H.264, 1912x792, 2.40:1, 4 537 Kbps, 23.976 fps

Аудио 1: Русский/Дублированный (iTunes), AAC / 2.0 / 160 Kbps / 48.0 KHz
Аудио 2: Английский/Оригинальная дорожка , AAC / 2.0 / 160 Kbps / 48.0 KHz
Аудио 3: Украинский/Дублированный (iTunes), AAC / 2.0 / 160 Kbps / 44.1 KHz
Аудио 4: Русский/Дублированный (iTunes), AC-3 / 5.1 / 384 Kbps / 48.0 KHz
Аудио 5: Английский/Оригинальная дорожка , AC-3 / 5.1 / 384 Kbps / 48.0 KHz

Субтитры 1: Русские форсированные
Субтитры 2: Украинские форсированные
Субтитры 3: Русские полные
Субтитры 4: Английские полные
Sort Name: Wonder Woman
XID: Apple:vendor_id:2017-102383
contentID: 1235765633
Copyright: © 2017 Warner Bros. Entertainment Inc. and RatPac-Dune Entertainment LLC. WONDER WOMAN and all related characters and elements are trademarks of and copyright DC Comics.
Screenwriters: Аллан Хейнберг, Уильям М. Марстон, Зак Снайдер
Producers: Джон Берг, Уэсли Коллер, Томми Гормли
Director: Пэтти Дженкинс
Cast: Галь Гадот, Крис Пайн, Конни Нильсен, Робин Райт, Дэнни Хьюстон, Дэвид Тьюлис, Саид Тагмауи, Юэн Бремнер, Юджин «Храбрый камень», Люси Дэвис
Studio: Warner Bros.
Rating Annotation: Rated PG-13 for sequences of violence and action, and some suggestive content.
Rating: 4
Long Description: Перед тем как стать Чудо-Женщиной, она была Дианой - принцессой амазонок, обученной быть непобедимой воительницей. И когда на берегах ограждённого от внешнего мира райского острова, который служил ей родиной, терпит крушение американский пилот и рассказывает о серьёзном конфликте, бушующем во внешнем мире, Диана покидает свой дом, чтобы справиться с этой угрозой. И там, сражаясь бок о бок с человеком в войне за мир, Диана обнаружит всю полноту своей власти… и своё истинное предназначение.
Description: Принцесса Амазонок приходит в мир мужчин, чтобы стать величайшей из женщин-супергероев.
Release Date: 2017-05-15T08:00:00Z
Genre: Action & Adventure
Artist: Patty Jenkins
Name: Wonder Woman (2017)
General
Complete name : /Users/imac/HandBrake/Wonder.Woman.(2017).WEB-DL.1080p.m4v
Format : MPEG-4
Codec ID : M4V
File size : 5.71 GiB
Duration : 2h 21mn
Overall bit rate mode : Variable
Overall bit rate : 5 788 Kbps
Movie name : Wonder Woman (2017)
Performer : Patty Jenkins
Director : Пэтти Дженкинс
Actor : Галь Гадот / Крис Пайн / Конни Нильсен / Робин Райт / Дэнни Хьюстон / Дэвид Тьюлис / Саид Тагмауи / Юэн Бремнер / Юджин «Храбрый камень» / Люси Дэвис
Screenplay by : Аллан Хейнберг / Уильям М. Марстон / Зак Снайдер
Producer : Джон Берг / Уэсли Коллер / Томми Гормли
Production studio : Warner Bros.
Genre : Action & Adventure
ContentType : Short Film
Description : Принцесса Амазонок приходит в мир мужчин, чтобы стать величайшей из женщин-супергероев.
Recorded date : UTC 2017-05-15 08:00:00
Encoded date : UTC 2017-08-30 21:32:01
Tagged date : UTC 2017-08-30 21:39:45
Copyright : © 2017 Warner Bros. Entertainment Inc. and RatPac-Dune Entertainment LLC. WONDER WOMAN and all related characters and elements are trademarks of and copyright DC Comics.
Cover : Yes
Rating : None
Title/Sort : Wonder Woman
LongDescription : Перед тем как стать Чудо-Женщиной, она была Дианой - принцессой амазонок, обученной быть непобедимой воительницей. И когда на берегах ограждённого от внешнего мира райского острова, который служил ей родиной, терпит крушение американский пилот и рассказывает о серьёзном конфликте, бушующем во внешнем мире, Диана покидает свой дом, чтобы справиться с этой угрозой. И там, сражаясь бок о бок с человеком в войне за мир, Диана обнаружит всю полноту своей власти… и своё истинное предназначение.
AppleStoreCatalogID : 1235765633
Vendor : Apple:vendor_id:2017-102383
ContentRating : mpaa|PG-13|300|Rated PG-13 for sequences of violence and action, and some suggestive content.

Video #1
ID : 1
Format : AVC
Format/Info : Advanced Video Codec
Format profile : High@L4
Format settings, CABAC : Yes
Format settings, ReFrames : 5 frames
Codec ID : avc1
Codec ID/Info : Advanced Video Coding
Duration : 2h 21mn
Bit rate : 4 537 Kbps
Width : 1 912 pixels
Height : 792 pixels
Display aspect ratio : 2.40:1
Frame rate mode : Variable
Frame rate : 23.976 fps
Minimum frame rate : 23.810 fps
Maximum frame rate : 24.390 fps
Color space : YUV
Chroma subsampling : 4:2:0
Bit depth : 8 bits
Scan type : Progressive
Bits/(Pixel*Frame) : 0.125
Stream size : 4.48 GiB (78%)
Title : Main Program
Language : English
Encoded date : UTC 2017-08-30 21:32:01
Tagged date : UTC 2017-08-30 21:34:37
Color range : Limited
Color primaries : BT.709
Transfer characteristics : BT.709
Matrix coefficients : BT.709

Video #2
ID : 12
Format : JPEG
Codec ID : jpeg
Duration : 2h 21mn
Bit rate mode : Variable
Bit rate : 309 bps
Width : 640 pixels
Height : 265 pixels
Display aspect ratio : 2.40:1
Frame rate mode : Constant
Frame rate : 0.001 fps
Color space : YUV
Chroma subsampling : 4:2:0
Bit depth : 8 bits
Compression mode : Lossy
Bits/(Pixel*Frame) : 1.822
Stream size : 453 KiB (0%)
Title : Chapter Images
Language : English
Encoded date : UTC 2017-08-30 21:34:43
Tagged date : UTC 2017-08-30 21:34:44

Audio #1
ID : 2
Format : AAC
Format/Info : Advanced Audio Codec
Format profile : LC
Codec ID : 40
Duration : 2h 21mn
Bit rate mode : Variable
Bit rate : 157 Kbps
Maximum bit rate : 218 Kbps
Channel(s) : 2 channels
Channel positions : Front: L R
Sampling rate : 48.0 KHz
Compression mode : Lossy
Stream size : 159 MiB (3%)
Title : Russian Stereo
Language : Russian
Encoded date : UTC 2017-08-30 21:32:01
Tagged date : UTC 2017-08-30 21:32:09

Audio #2
ID : 3
Format : AAC
Format/Info : Advanced Audio Codec
Format profile : LC
Codec ID : 40
Duration : 2h 21mn
Bit rate mode : Variable
Bit rate : 157 Kbps
Maximum bit rate : 212 Kbps
Channel(s) : 2 channels
Channel positions : Front: L R
Sampling rate : 48.0 KHz
Compression mode : Lossy
Stream size : 159 MiB (3%)
Title : English Stereo
Language : English
Encoded date : UTC 2017-08-30 21:32:01
Tagged date : UTC 2017-08-30 21:32:09

Audio #3
ID : 4
Format : AAC
Format/Info : Advanced Audio Codec
Format profile : LC
Codec ID : 40
Duration : 2h 21mn
Bit rate mode : Variable
Bit rate : 156 Kbps
Maximum bit rate : 229 Kbps
Channel(s) : 2 channels
Channel positions : Front: L R
Sampling rate : 44.1 KHz
Compression mode : Lossy
Stream size : 158 MiB (3%)
Title : Ukrainian Stereo
Language : Ukrainian
Encoded date : UTC 2017-08-30 21:32:01
Tagged date : UTC 2017-08-30 21:32:08

Audio #4
ID : 5
Format : AC-3
Format/Info : Audio Coding 3
Mode extension : CM (complete main)
Format settings, Endianness : Big
Codec ID : ac-3
Duration : 2h 21mn
Bit rate mode : Constant
Bit rate : 384 Kbps
Channel(s) : 6 channels
Channel positions : Front: L C R, Side: L R, LFE
Sampling rate : 48.0 KHz
Bit depth : 16 bits
Compression mode : Lossy
Stream size : 388 MiB (7%)
Title : Russian DD 5.1
Language : Russian
Encoded date : UTC 2017-08-30 21:32:01
Tagged date : UTC 2017-08-30 21:34:37

Audio #5
ID : 6
Format : AC-3
Format/Info : Audio Coding 3
Mode extension : CM (complete main)
Format settings, Endianness : Big
Codec ID : ac-3
Duration : 2h 21mn
Bit rate mode : Constant
Bit rate : 384 Kbps
Channel(s) : 6 channels
Channel positions : Front: L C R, Side: L R, LFE
Sampling rate : 48.0 KHz
Bit depth : 16 bits
Compression mode : Lossy
Stream size : 388 MiB (7%)
Title : English DD 5.1
Language : English
Encoded date : UTC 2017-08-30 21:32:01
Tagged date : UTC 2017-08-30 21:34:37

Text #1
ID : 7
Format : Timed Text
Muxing mode : sbtl
Codec ID : tx3g
Duration : 2h 10mn
Bit rate mode : Variable
Bit rate : 1 bps
Stream size : 1.13 KiB (0%)
Title : Russian forced
Language : Russian
Encoded date : UTC 2017-08-30 21:32:01
Tagged date : UTC 2017-08-30 21:34:37

Text #2
ID : 8
Format : Timed Text
Muxing mode : sbtl
Codec ID : tx3g
Duration : 2h 10mn
Bit rate mode : Variable
Bit rate : 1 bps
Stream size : 1.21 KiB (0%)
Title : Ukrainian forced
Language : Ukrainian
Encoded date : UTC 2017-08-30 21:32:01
Tagged date : UTC 2017-08-30 21:34:37

Text #3
ID : 9
Format : Timed Text
Muxing mode : sbtl
Codec ID : tx3g
Duration : 2h 12mn
Bit rate mode : Variable
Bit rate : 88 bps
Stream size : 85.9 KiB (0%)
Title : Russian full
Language : Russian
Encoded date : UTC 2017-08-30 21:32:01
Tagged date : UTC 2017-08-30 21:34:37

Text #4
ID : 10
Format : Timed Text
Muxing mode : sbtl
Codec ID : tx3g
Duration : 2h 10mn
Bit rate mode : Variable
Bit rate : 55 bps
Stream size : 52.4 KiB (0%)
Title : English full
Language : English
Encoded date : UTC 2017-08-30 21:32:01
Tagged date : UTC 2017-08-30 21:32:01

Menu #1
00:00:00.000 : 1
00:10:24.000 : 2
00:23:10.000 : 3
00:33:08.000 : 4
00:43:53.000 : 5
00:54:23.000 : 6
01:07:36.000 : 7
01:22:28.000 : 8
01:34:00.000 : 9
01:45:35.000 : 10
01:57:41.000 : 11
02:10:38.000 : 12

Menu #2
ID : 11
Codec ID : text
Duration : 2h 21mn
Language : English
Encoded date : UTC 2017-08-30 21:34:38
Tagged date : UTC 2017-08-30 21:34:38
00:00:00.000 : 1
00:10:24.000 : 2
00:23:10.000 : 3
00:33:08.000 : 4
00:43:53.000 : 5
00:54:23.000 : 6
01:07:36.000 : 7
01:22:28.000 : 8
01:34:00.000 : 9
01:45:35.000 : 10
01:57:41.000 : 11
02:10:38.000 : 12
Bit rate mode : VBR
Релиз подготовлен для просмотра на Apple TV, iPad, iPhone, iPod Touch.
Для просмотра данного релиза на компьютере с ОС Windows рекомендуется использовать VLC media player

Трекер:  [ 31-Авг-2017 01:12 ]

  

Скачать .torrent

Размер .torrent файла 57 KB


Размер: 5.71 GB
Хэш (hash) релиза: 1fe4eae9ffb239f9a1901132f473cf6dd04cd801

Еще никто не оставлял запись к записи скачать торрент [ATV3] Чудо-женщина Wonder Woman . Будь первым!

!Обратная связь