Скачать через торрент Пламенный лабиринт Honoo no Labyrinth бесплатно Аниме Все серии на русском torrent

Если у вас наблюдаются проблемы со скриншотами, переходом по ссылками, скачиванием торрентов - проблемы в блокировщике рекламы AdBlock. #хорошегоДня!


Статистика раздачи
Размер:  1.04 GB   |    Зарегистрирован:  20 дней   |    .torrent скачан:  9 раз   |   
Раздают:  1  
   
Загрузка...
 
Автор Сообщение

Galfimbul

avatar Galfimbul


Пламенный лабиринт / Honoo no Labyrinth / Labyrinth of Flames

Страна: Япония
Год выпуска: 2000
Жанр: комедия, приключения, этти
Тип: OVA
Продолжительность: 2 эп. по ~32 мин.
Режиссер: Нисидзима Кацухико
Студия: Studio Fantasia

Описание: Современная Россия, Дальний Восток, параллельный мир.
В середине XIX века после поражения в Японии сторонников сёгуната Токугава его наиболее ярые приверженцы отплыли в Россию. Выкупив у царя большой участок земли, они построили город, спроектированный в полном соответствии с японской традицией - храмами, замками и так далее. Так на Дальнем Востоке появился японский анклав - последний оплот культуры Древней Японии.
Юный россиянин Галан помешан на японской культуре. Он мечтает стать настоящим самураем и занимается кэндо - правда, без особого успеха. Какова же его радость, когда красавица Нацу из "русской Японии" дарит ему настоящую древнюю когатану (малый меч)! И, конечно, Галан с радостью соглашается поехать к ней домой, чтобы посмотреть коллекцию оружия ее отца.
Однако вскоре выясняется, что у Нацу на Галана вполне определенные планы. Ведь она - дочь правителя "русской Японии", и в ее роду древний меч дарят будущим зятьям... С другой стороны, отец Нацу совсем не собирается соглашаться с ее выбором. Он уже подобрал дочери жениха.
© World Art

Доп. информация: Это апскейл с чисткой артефактов, что бы лучше выглядело на современных 4:3 экранах.

Качество: DVDRip
Тип релиза: Без хардсаба
Формат видео: MKV
Релиз/Автор рипа: mottoj
Совместимость с бытовыми плеерами: Нет
Видео: x264, 960x720, (4/3), ~4000 kbps, 23,976 fps, 8 bit
Аудио: AC3, 192 kbps, 48,0 Hz, 2 ch Язык Русский (внешним файлом) ; Озвучка: Persona99
Аудио 2: AC3, 192 kbps, 48,0 Hz, 2 ch Язык Русский (внешним файлом) ; Озвучка 2: Animegroup
Аудио 3: AC3, 192 kbps, 48,0 Hz, 2 ch Язык Русский (внешним файлом) ; Озвучка 3: Digital Force
Аудио 4: AC-3, 192 kbps, 48,0 Hz, 2 ch Язык Японский ; Озвучка 4: Оригинальная
Субтитры: ASS (внешние) Язык субтитров русский ; Перевод: Blast Off
Субтитры 2: ASS (внешние) Язык субтитров русский ; Перевод 2: hikari
Субтитры 3: ASS (внешние) Язык субтитров русский ; Перевод 3: praded
ОбщееУникальный идентификатор : 196181146026748653099131916957609191215 (0x93971D471240EC1AA3E235653BF1672F)Полное имя : Honoo no Labyrinth OVA [720p]\[ARRU] Honoo no Labyrinth OVA - 01 [DVDRip 960x720 8bit] [mottoj] [720p].mkvФормат : MatroskaВерсия формата : Version 4 / Version 2Размер файла : 365 МбайтПродолжительность : 32 м. 33 с.Общий поток : 1568 Кбит/секДата кодирования : UTC 2017-08-30 15:43:54Программа кодирования : mkvmerge v14.0.0 ('Flow') 64bitБиблиотека кодирования : libebml v1.3.4 + libmatroska v1.4.5Обложка : YesAttachments : cover.jpg

ВидеоИдентификатор : 1Формат : AVCФормат/Информация : Advanced Video CodecПрофиль формата : High@L4.1Параметр CABAC формата : ДаПараметр RefFrames формата : 9 кадровИдентификатор кодека : V_MPEG4/ISO/AVCПродолжительность : 32 м. 33 с.Битрейт : 1374 Кбит/секШирина : 960 пикселейВысота : 720 пикселейСоотношение сторон : 4:3Режим частоты кадров : ПостоянныйЧастота кадров : 23,976 (24000/1001) кадра/секЦветовое пространство : YUVСубдискретизация насыщенности : 4:2:0Битовая глубина : 8 битТип развёртки : ПрогрессивнаяБит/(Пиксели*Кадры) : 0.083Размер потока : 320 Мбайт (88%)Библиотека кодирования : x264 core 152 r2851 ba24899Настройки программы : cabac=1 / ref=9 / deblock=1:0:0 / analyse=0x3:0x113 / me=hex / subme=8 / psy=1 / psy_rd=1.00:0.00 / mixed_ref=1 / me_range=16 / chroma_me=1 / trellis=2 / 8x8dct=1 / cqm=0 / deadzone=21,11 / fast_pskip=1 / chroma_qp_offset=-2 / threads=18 / lookahead_threads=3 / sliced_threads=0 / nr=0 / decimate=1 / interlaced=0 / bluray_compat=0 / constrained_intra=0 / bframes=3 / b_pyramid=2 / b_adapt=1 / b_bias=0 / direct=3 / weightb=1 / open_gop=0 / weightp=2 / keyint=250 / keyint_min=23 / scenecut=40 / intra_refresh=0 / rc_lookahead=50 / rc=crf / mbtree=1 / crf=18.0 / qcomp=0.60 / qpmin=0 / qpmax=69 / qpstep=4 / ip_ratio=1.40 / aq=1:1.00Язык : JapaneseDefault : ДаForced : Нет

АудиоИдентификатор : 2Формат : AC-3Формат/Информация : Audio Coding 3Параметр Endianness формата : BigИдентификатор кодека : A_AC3Продолжительность : 32 м. 32 с.Вид битрейта : ПостоянныйБитрейт : 192 Кбит/секКаналы : 2 каналаРасположение каналов : Front: L RЧастота : 48,0 КГцЧастота кадров : 31,250 кадров/сек (1536 SPF)Битовая глубина : 16 битМетод сжатия : С потерямиРазмер потока : 44,7 Мбайт (12%)Язык : JapaneseServiceKind/String : Complete MainDefault : ДаForced : Нет

Меню00:00:00.000 : :Chapter 200:01:37.331 : :Chapter 300:03:25.472 : :Chapter 400:09:56.297 : :Chapter 500:18:55.135 : :Chapter 600:28:36.216 : :Chapter 700:31:48.475 : :Chapter 8
01. Samurai Labyrinth? Loverinth?
02. Treasure Labyrinth? Loverinth?
...287618 - лучше качество видео
http://screenshotcomparison.com/comparison/116092...5440736 - лучше качество видео
http://screenshotcomparison.com/comparison/116093


Трекер:  [ 30-Авг-2017 20:01 ]

  

Скачать .torrent

Размер .torrent файла 12 KB


Размер: 1.04 GB
Хэш (hash) релиза: b9b9b939cf2dcd6538bedfada2eaef37e8076303
Подписка на обновления:

Торренты, похожие на Пламенный лабиринт Honoo no Labyrinth скачать торрент

Форум Название Автор Размер S L Добавлен
Аниме | Rips ·· Пламенный лабиринт / Honoo no Labyrinth / Labyrinth of Flames (Нисидзима Кацухико) [OVA] [2 из 2] [без хардсаба] [RUS(ext),JAP+SUB] [2000, комедия, приключения, этти, DVDRip] Galfimbul 25151033782.34 GB 0 0 1502712169

15:02

14-Авг-17

Еще никто не оставлял запись к записи скачать торрент Пламенный лабиринт Honoo no Labyrinth . Будь первым!

!Обратная связь