Скачать через торрент Фруктовые герои Action Heroine Cheer Fruits бесплатно Аниме Все серии на русском torrent

Если у вас наблюдаются проблемы со скриншотами, переходом по ссылками, скачиванием торрентов - проблемы в блокировщике рекламы AdBlock. #хорошегоДня!


Статистика раздачи
Размер:  990 MB   |    Зарегистрирован:  2 месяца 21 день   |    .torrent скачан:  2 раза   |   
Раздают:  1  
   
Загрузка...
 
Автор Сообщение

Galfimbul

avatar Galfimbul


Фруктовые герои / Action Heroine Cheer Fruits / アクションヒロイン チアフルーツ
Год выпуска: 2017 г.
Страна: Япония
Жанр: Повседневность, Комедия, ШколаТип: TVПродолжительность: 12 эп. по 25 мин.
Режиссер: Кусакава Кэйдзо
Студия: Studio BarcelonaПеревод:

Русские субтитры от Omnikus & Ya_Danya

Описание:
В одном из городов Японии стали популярны бои между героинями и злодеями. Отважные девушки яростно сражаются с негодяями, раз за разом одерживая над ними блестящую победу. В какой-то момент популярность подобных битв вышла за пределы этого города и распространилась по всей стране. Сражения со злодеями начали показывать даже на телевизионных шоу. На волне всеобщей шумихи другим девушкам тоже захотелось урвать свой кусочек славы, и героини стали появляться и в других городах.

В городке Хинано, чьей основной деятельностью является производство фруктов, своих героинь до сих пор нет. Поэтому жителям остаётся смотреть на отчаянные сражения храбрых девушек лишь по телевизору. Но старшеклассница Мисаки Широганэ не согласна с таким положением вещей. Она искренне хочет, чтобы её родной город тоже прославился на всю страну, поэтому активно приглашает своих землячек стать настоящими героинями вместе с ней. Ещё не все злодеи побеждены, а значит Мисаки и её команда идут бороться со злом и покорять сердца зрителей одновременно!Информационные ссылки: World Art || AniDB || MALКачество: HDTVRip | Рип: [Leopard-Raws]
Тип релиза: Без хардсаба
Формат видео: MP4
Наличие линковки: Нет
Видео: AVC, 1280x720, 1809 kbps, 23.976 fps [8 bit]
Аудио:
1. Japanese AAC, 48.0 KHz, 192 kbps, 2 ch;
Субтитры:

Russian: ASS, внешние;
General Format : MPEG-4 Format profile : Base Media Codec ID : isom File size : 351 MiB Duration : 24mn 30s Overall bit rate mode : Variable Overall bit rate : 2 004 Kbps Encoded date : UTC 2017-07-07 08:52:15 Tagged date : UTC 2017-07-07 08:52:15 Video #1 ID : 1 Format : AVC Format/Info : Advanced Video Codec Format profile : High@L4.1 Format settings, CABAC : Yes Format settings, ReFrames : 4 frames Codec ID : avc1 Codec ID/Info : Advanced Video Coding Duration : 24mn 30s Bit rate : 1 809 Kbps Maximum bit rate : 13.7 Mbps Width : 1 280 pixels Height : 720 pixels Display aspect ratio : 16:9 Frame rate mode : Constant Frame rate : 23.976 fps Color space : YUV Chroma subsampling : 4:2:0 Bit depth : 8 bits Scan type : Progressive Bits/(Pixel*Frame) : 0.082 Stream size : 317 MiB (90%) Title : 264:fps=23.976@GPAC0.5.2-DEV-rev376-g5eeb74d-master Writing library : x264 core 129 r2245+729M 1a52e03 Encoding settings : cabac=1 / ref=4 / deblock=1:1:-1 / analyse=0x3:0x113 / me=umh / subme=9 / psy=1 / fade_compensate=0.00 / psy_rd=1.00:0.00 / mixed_ref=1 / me_range=24 / chroma_me=1 / trellis=2 / 8x8dct=1 / cqm=0 / deadzone=21,11 / fast_pskip=1 / chroma_qp_offset=-2 / threads=8 / lookahead_threads=1 / sliced_threads=0 / nr=0 / decimate=1 / interlaced=0 / bluray_compat=0 / constrained_intra=0 / fgo=0 / bframes=9 / b_pyramid=2 / b_adapt=2 / b_bias=0 / direct=1 / weightb=1 / open_gop=0 / weightp=2 / keyint=240 / keyint_min=24 / scenecut=40 / intra_refresh=0 / rc=crf / mbtree=0 / crf=18.5 / qcomp=0.72 / qpmin=0 / qpmax=69 / qpstep=4 / ip_ratio=1.40 / pb_ratio=1.30 / aq=1:0.85 Encoded date : UTC 2017-07-07 08:52:15 Tagged date : UTC 2017-07-07 08:52:18 Color primaries : BT.709 Transfer characteristics : BT.709 Matrix coefficients : BT.709 Audio #2 ID : 2 Format : AAC Format/Info : Advanced Audio Codec Format profile : LC Codec ID : 40 Duration : 24mn 30s Bit rate mode : Variable Bit rate : 192 Kbps Maximum bit rate : 252 Kbps Channel(s) : 2 channels Channel positions : Front: L R Sampling rate : 48.0 KHz Compression mode : Lossy Stream size : 33.6 MiB (10%) Language : Japanese Encoded date : UTC 2017-07-06 21:30:50 Tagged date : UTC 2017-07-07 08:52:18
01. Ультра-Небесная Камидайо! / Suddenly, Ultra-Celestial!
02. Это нормально, для нормального Роко стать Героиней / It`s Okay for a Normal `Roko` to Try to Become a Heroine
03. Очень пустой Канон / A Very Idle Kanon


Трекер:  [ 30-Авг-2017 17:30 ]

  

Скачать .torrent

Размер .torrent файла 20 KB


Размер: 990 MB
Хэш (hash) релиза: e50ec92299580a0e566f191616d76c7248eb3494
Подписка на обновления:

Еще никто не оставлял запись к записи скачать торрент Фруктовые герои Action Heroine Cheer Fruits . Будь первым!

!Обратная связь