Rough Night torrent

, , - AdBlock. #!


1.82 GB   |    :  25    |    .torrent :  11    |   
1  
   
...
 

Galfimbul

avatar Galfimbul


/ Rough Night


5.482 / 10 5.50 / 10
: 2017
:
:
: 01:40:50

: (iTunes)
:
C: , ,
:
: , .
: , , .
:
:
: , ,
:
: , , , , , . , , , ,

: $20 000 000
: $22 062 200
: + $22 994 571 = $45 056 771
: $2 394 557

: 15 2017
(): 15 2017, WDSSPR

: ? , . - , . : BDRemux
: BDRip
: SD (576p)
: M4V
: H.264, 1024x432, 2.40:1, 2 200 Kbps, 23.976 (24000/1001) fps

1: / (iTunes), AAC / 2.0 / 128 Kbps / 48.0 KHz
2: / , AAC / 2.0 / 128 Kbps / 48.0 KHz
3: / (iTunes), AAC / 2.0 / 128 Kbps / 48.0 KHz

1:
2:
3:
Sort Name: Rough Night
XID: Apple:vendor_id:2016-975912
contentID: 1238392746
Copyright: 2017 Paulilu Productions
Screenwriters: , .
Producers: , , .
Director:
Cast: , , , , , . , , , ,
Studio: Paulilu Productions
Rating: 5
Long Description: ? , . - , .
Description: ? , .
Release Date: 2017-09-20T07:00:00Z
Genre: Comedy
Artist: Lucia Aniello
Name: Rough Night
General
Complete name : /Users/imac/HandBrake/Rough.Night.(576p).(pk).m4v
Format : MPEG-4
Codec ID : M4V (M4V /M4A /mp42/isom)
File size : 1.82 GiB
Duration : 1h 40mn
Overall bit rate mode : Variable
Overall bit rate : 2 585 Kbps
Movie name : Rough Night
Performer : Lucia Aniello
Director :
Actor : / / / / / . / / / /
Screenplay by : / .
Producer : / / .
Production studio : Paulilu Productions
Genre : Comedy
ContentType : Short Film
Description : ? , .
Recorded date : UTC 2017-09-20 07:00:00
Encoded date : UTC 2017-08-30 10:32:54
Tagged date : UTC 2017-08-30 10:36:13
Copyright : 2017 Paulilu Productions
Cover : Yes
Rating : None
Title/Sort : Rough Night
LongDescription : ? , . - , .
AppleStoreCatalogID : 1238392746
Vendor : Apple:vendor_id:2016-975912
ContentRating : mpaa|R|400|

Video #1
ID : 1
Format : AVC
Format/Info : Advanced Video Codec
Format profile : High@L3.1
Format settings, CABAC : Yes
Format settings, ReFrames : 9 frames
Codec ID : avc1
Codec ID/Info : Advanced Video Coding
Duration : 1h 40mn
Source duration : 1h 40mn
Bit rate : 2 200 Kbps
Width : 1 024 pixels
Height : 432 pixels
Display aspect ratio : 2.40:1
Frame rate mode : Variable
Frame rate : 23.976 (24000/1001) fps
Minimum frame rate : 23.974 fps
Maximum frame rate : 23.981 fps
Color space : YUV
Chroma subsampling : 4:2:0
Bit depth : 8 bits
Scan type : Progressive
Bits/(Pixel*Frame) : 0.207
Stream size : 1.55 GiB (85%)
Source stream size : 1.55 GiB (85%)
Title : Main Program
Writing library : x264 core 148 r2708 86b7198
Encoding settings : cabac=1 / ref=9 / deblock=1:0:0 / analyse=0x3:0x113 / me=umh / subme=9 / psy=1 / psy_rd=1.00:0.00 / mixed_ref=1 / me_range=32 / chroma_me=1 / trellis=1 / 8x8dct=1 / cqm=0 / deadzone=21,11 / fast_pskip=1 / chroma_qp_offset=-2 / threads=13 / lookahead_threads=1 / sliced_threads=0 / nr=0 / decimate=1 / interlaced=0 / bluray_compat=0 / constrained_intra=0 / bframes=6 / b_pyramid=2 / b_adapt=2 / b_bias=0 / direct=1 / weightb=1 / open_gop=0 / weightp=2 / keyint=240 / keyint_min=24 / scenecut=40 / intra_refresh=0 / rc_lookahead=40 / rc=2pass / mbtree=1 / bitrate=2200 / ratetol=1.0 / qcomp=0.60 / qpmin=0 / qpmax=69 / qpstep=4 / cplxblur=20.0 / qblur=0.5 / ip_ratio=1.40 / aq=1:1.00
Language : English
Encoded date : UTC 2017-08-30 10:32:54
Tagged date : UTC 2017-08-30 10:32:59
Color range : Limited
Color primaries : BT.709
Transfer characteristics : BT.709
Matrix coefficients : BT.709
Menus : 8,9

Video #2
ID : 9
Format : JPEG
Codec ID : jpeg
Duration : 1h 40mn
Bit rate mode : Variable
Bit rate : 792 bps
Width : 640 pixels
Height : 270 pixels
Display aspect ratio : 2.40:1
Frame rate mode : Variable
Frame rate : 0.003 fps
Minimum frame rate : 0.002 fps
Maximum frame rate : 0.006 fps
Color space : YUV
Chroma subsampling : 4:2:0
Bit depth : 8 bits
Compression mode : Lossy
Bits/(Pixel*Frame) : 1.528
Stream size : 515 KiB (0%)
Title : Chapter Images
Language : English
Default : No
Encoded date : UTC 2017-08-30 10:33:07
Tagged date : UTC 2017-08-30 10:33:07
Menu For : 1

Audio #1
ID : 2
Format : AAC
Format/Info : Advanced Audio Codec
Format profile : LC
Codec ID : 40
Duration : 1h 40mn
Bit rate mode : Variable
Bit rate : 125 Kbps
Maximum bit rate : 206 Kbps
Channel(s) : 2 channels
Channel positions : Front: L R
Sampling rate : 48.0 KHz
Frame rate : 46.875 fps (1024 SPF)
Compression mode : Lossy
Stream size : 90.1 MiB (5%)
Title : Russian Stereo
Language : Russian
Default : Yes
Alternate group : 1
Encoded date : UTC 2017-08-30 10:32:54
Tagged date : UTC 2017-08-30 10:33:03
Subtitles : 5,6

Audio #2
ID : 3
Format : AAC
Format/Info : Advanced Audio Codec
Format profile : LC
Codec ID : 40
Duration : 1h 40mn
Bit rate mode : Variable
Bit rate : 124 Kbps
Maximum bit rate : 226 Kbps
Channel(s) : 2 channels
Channel positions : Front: L R
Sampling rate : 48.0 KHz
Frame rate : 46.875 fps (1024 SPF)
Compression mode : Lossy
Stream size : 89.8 MiB (5%)
Title : English Stereo
Language : English
Default : No
Alternate group : 1
Encoded date : UTC 2017-08-30 10:32:54
Tagged date : UTC 2017-08-30 10:33:03

Audio #3
ID : 4
Format : AAC
Format/Info : Advanced Audio Codec
Format profile : LC
Codec ID : 40
Duration : 1h 40mn
Bit rate mode : Variable
Bit rate : 125 Kbps
Maximum bit rate : 184 Kbps
Channel(s) : 2 channels
Channel positions : Front: L R
Sampling rate : 48.0 KHz
Frame rate : 46.875 fps (1024 SPF)
Compression mode : Lossy
Stream size : 90.4 MiB (5%)
Title : Ukrainian Stereo
Language : Ukrainian
Default : No
Alternate group : 1
Encoded date : UTC 2017-08-30 10:32:54
Tagged date : UTC 2017-08-30 10:33:03

Text #1
ID : 5
Format : Timed Text
Muxing mode : sbtl
Codec ID : tx3g
Duration : 1h 34mn
Bit rate mode : Variable
Bit rate : 1 bps
Stream size : 398 Bytes (0%)
Title : Russian forced
Language : Russian
Default : Yes
Forced : Yes
Alternate group : 2
Encoded date : UTC 2017-08-30 10:32:54
Tagged date : UTC 2017-08-30 10:32:54
Subtitles For : 2
Full Alternative : 6

Text #2
ID : 6
Format : Timed Text
Muxing mode : sbtl
Codec ID : tx3g
Duration : 1h 39mn
Bit rate mode : Variable
Bit rate : 138 bps
Stream size : 101 KiB (0%)
Title : Russian full
Language : Russian
Default : No
Forced : No
Alternate group : 2
Encoded date : UTC 2017-08-30 10:32:54
Tagged date : UTC 2017-08-30 10:32:54
Subtitles For : 2
Forced Alternative : 5

Text #3
ID : 7
Format : Timed Text
Muxing mode : sbtl
Codec ID : tx3g
Duration : 1h 39mn
Bit rate mode : Variable
Bit rate : 115 bps
Stream size : 84.5 KiB (0%)
Title : English full
Language : English
Default : No
Forced : No
Alternate group : 2
Encoded date : UTC 2017-08-30 10:32:54
Tagged date : UTC 2017-08-30 10:32:54

Menu #1
00:00:00.000 : Chapter 1
00:04:44.117 : Chapter 2
00:08:04.818 : Chapter 3
00:15:18.668 : Chapter 4
00:25:45.753 : Chapter 5
00:34:26.606 : Chapter 6
00:39:51.097 : Chapter 7
00:43:10.963 : Chapter 8
00:46:25.825 : Chapter 9
00:49:09.071 : Chapter 10
00:53:43.637 : Chapter 11
00:59:36.948 : Chapter 12
01:02:53.895 : Chapter 13
01:11:56.187 : Chapter 14
01:22:54.845 : Chapter 15
01:30:57.953 : Chapter 16

Menu #2
ID : 8
Codec ID : text
Duration : 1h 40mn
Language : English
Encoded date : UTC 2017-08-30 10:33:03
Tagged date : UTC 2017-08-30 10:33:03
Menu For : 1
00:00:00.000 : Chapter 1
00:04:44.117 : Chapter 2
00:08:04.818 : Chapter 3
00:15:18.668 : Chapter 4
00:25:45.753 : Chapter 5
00:34:26.606 : Chapter 6
00:39:51.097 : Chapter 7
00:43:10.963 : Chapter 8
00:46:25.825 : Chapter 9
00:49:09.071 : Chapter 10
00:53:43.637 : Chapter 11
00:59:36.948 : Chapter 12
01:02:53.895 : Chapter 13
01:11:56.187 : Chapter 14
01:22:54.845 : Chapter 15
01:30:57.953 : Chapter 16
Bit rate mode : VBR
x264 [info]: frame I:1845 Avg QP:13.11 size:109929
x264 [info]: frame P:56783 Avg QP:15.79 size: 31633
x264 [info]: frame B:86427 Avg QP:18.07 size: 7384
x264 [info]: consecutive B-frames: 3.9% 45.2% 14.1% 36.8%
x264 [info]: mb I I16..4: 7.5% 56.5% 36.1%
x264 [info]: mb P I16..4: 1.2% 4.8% 2.6% P16..4: 43.6% 29.0% 12.2% 0.0% 0.0% skip: 6.7%
x264 [info]: mb B I16..4: 0.1% 0.4% 0.3% B16..8: 42.8% 12.9% 1.9% direct: 2.9% skip:38.7% L0:39.4% L1:51.4% BI: 9.2%
x264 [info]: 8x8 transform intra:55.9% inter:40.0%
x264 [info]: coded y,uvDC,uvAC intra: 87.1% 87.0% 72.2% inter: 23.7% 22.4% 15.0%
x264 [info]: i16 v,h,dc,p: 36% 20% 6% 38%
x264 [info]: i8 v,h,dc,ddl,ddr,vr,hd,vl,hu: 11% 8% 5% 11% 14% 15% 13% 13% 10%
x264 [info]: i4 v,h,dc,ddl,ddr,vr,hd,vl,hu: 11% 10% 3% 11% 17% 16% 13% 11% 8%
x264 [info]: i8c dc,h,v,p: 48% 17% 22% 14%
x264 [info]: ref P L0: 73.3% 15.7% 11.0%
x264 [info]: ref B L0: 82.3% 17.7%
x264 [info]: kb/s:3487.21
Apple TV, iPad, iPhone, iPod Touch.
Windows VLC media player

 ·  , , FAQ-
:  [ 30--2017 14:12 ]

  

.torrent

.torrent 37 KB


: 1.82 GB
(hash) : 8655e09ab873acf40c3210b2086ee0dc49f4c662
··
...

Rough Night . !

!