[ATV3] Rough Night torrent

, , - AdBlock. #!


6.69 GB   |    :  26    |    .torrent :  9    |   
1  
   
...
 

Galfimbul

avatar Galfimbul


/ Rough Night


5.482 / 10 5.50 / 10
: 2017
:
:
: 01:40:50

: (iTunes)
:
C: , ,
:
: , .
: , , .
:
:
: , ,
:
: , , , , , . , , , ,

: $20 000 000
: $22 062 200
: + $22 994 571 = $45 056 771
: $2 394 557

: 15 2017
(): 15 2017, WDSSPR

: ? , . - , . : BDRemux (HDClub)
: BDRip
: HD (1080p)
: M4V
: H.264, 1920x800, 2.40:1, 8 000 Kbps, 23.976 (24000/1001) fps

1: / (iTunes), AAC / 2.0 / 160 Kbps / 48.0 KHz
2: / , AAC / 2.0 / 160 Kbps / 48.0 KHz
3: / (iTunes), AAC / 2.0 / 160 Kbps / 48.0 KHz
4: / (iTunes), AC-3 / 5.1 / 384 Kbps / 48.0 KHz
5: / , AC-3 / 5.1 / 640 Kbps / 48.0 KHz

1:
2:
3:
Sort Name: Rough Night
XID: Apple:vendor_id:2016-975912
contentID: 1238392746
Copyright: 2017 Paulilu Productions
Screenwriters: , .
Producers: , , .
Director:
Cast: , , , , , . , , , ,
Studio: Paulilu Productions
Rating: 5
Long Description: ? , . - , .
Description: ? , .
Release Date: 2017-09-20T07:00:00Z
Genre: Comedy
Artist: Lucia Aniello
Name: Rough Night
General
Complete name : /Users/imac/HandBrake/Rough Night (1080p HD).m4v
Format : MPEG-4
Codec ID : M4V (M4V /M4A /mp42/isom)
File size : 6.69 GiB
Duration : 1h 40mn
Overall bit rate mode : Variable
Overall bit rate : 9 502 Kbps
Movie name : Rough Night
Performer : Lucia Aniello
Director :
Actor : / / / / / . / / / /
Screenplay by : / .
Producer : / / .
Production studio : Paulilu Productions
Genre : Comedy
ContentType : Short Film
Description : ? , .
Recorded date : UTC 2017-09-20 07:00:00
Encoded date : UTC 2017-08-29 09:37:43
Tagged date : UTC 2017-08-29 11:01:44
Copyright : 2017 Paulilu Productions
Cover : Yes
Rating : None
Title/Sort : Rough Night
LongDescription : ? , . - , .
AppleStoreCatalogID : 1238392746
Vendor : Apple:vendor_id:2016-975912
ContentRating : mpaa|R|400|

Video #1
ID : 1
Format : AVC
Format/Info : Advanced Video Codec
Format profile : High@L4
Format settings, CABAC : Yes
Format settings, ReFrames : 4 frames
Codec ID : avc1
Codec ID/Info : Advanced Video Coding
Duration : 1h 40mn
Source duration : 1h 40mn
Bit rate : 8 000 Kbps
Width : 1 920 pixels
Height : 800 pixels
Display aspect ratio : 2.40:1
Frame rate mode : Variable
Frame rate : 23.976 (24000/1001) fps
Minimum frame rate : 23.974 fps
Maximum frame rate : 23.981 fps
Color space : YUV
Chroma subsampling : 4:2:0
Bit depth : 8 bits
Scan type : Progressive
Bits/(Pixel*Frame) : 0.217
Stream size : 5.63 GiB (84%)
Source stream size : 5.63 GiB (84%)
Title : Main Program
Writing library : x264 core 148 r2708 86b7198
Encoding settings : cabac=1 / ref=4 / deblock=1:-2:-2 / analyse=0x3:0x133 / me=umh / subme=10 / psy=1 / psy_rd=1.00:0.15 / mixed_ref=1 / me_range=32 / chroma_me=1 / trellis=2 / 8x8dct=1 / cqm=0 / deadzone=21,11 / fast_pskip=1 / chroma_qp_offset=-3 / threads=25 / lookahead_threads=6 / sliced_threads=0 / nr=0 / decimate=0 / interlaced=0 / bluray_compat=0 / constrained_intra=0 / bframes=16 / b_pyramid=2 / b_adapt=2 / b_bias=0 / direct=3 / weightb=1 / open_gop=0 / weightp=2 / keyint=240 / keyint_min=24 / scenecut=40 / intra_refresh=0 / rc_lookahead=40 / rc=2pass / mbtree=1 / bitrate=8000 / ratetol=1.0 / qcomp=0.70 / qpmin=0 / qpmax=69 / qpstep=4 / cplxblur=20.0 / qblur=0.5 / ip_ratio=1.40 / aq=1:1.00
Language : English
Encoded date : UTC 2017-08-29 09:37:43
Tagged date : UTC 2017-08-29 09:38:04
Color range : Limited
Color primaries : BT.709
Transfer characteristics : BT.709
Matrix coefficients : BT.709
Menus : 10,11

Video #2
ID : 11
Format : JPEG
Codec ID : jpeg
Duration : 1h 40mn
Bit rate mode : Variable
Bit rate : 780 bps
Width : 640 pixels
Height : 266 pixels
Display aspect ratio : 2.40:1
Frame rate mode : Variable
Frame rate : 0.003 fps
Minimum frame rate : 0.002 fps
Maximum frame rate : 0.006 fps
Color space : YUV
Chroma subsampling : 4:2:0
Bit depth : 8 bits
Compression mode : Lossy
Bits/(Pixel*Frame) : 1.527
Stream size : 508 KiB (0%)
Title : Chapter Images
Language : English
Default : No
Encoded date : UTC 2017-08-29 09:38:18
Tagged date : UTC 2017-08-29 09:38:19
Menu For : 1

Audio #1
ID : 2
Format : AAC
Format/Info : Advanced Audio Codec
Format profile : LC
Codec ID : 40
Duration : 1h 40mn
Bit rate mode : Variable
Bit rate : 155 Kbps
Maximum bit rate : 259 Kbps
Channel(s) : 2 channels
Channel positions : Front: L R
Sampling rate : 48.0 KHz
Frame rate : 46.875 fps (1024 SPF)
Compression mode : Lossy
Stream size : 112 MiB (2%)
Title : Russian Stereo
Language : Russian
Default : Yes
Alternate group : 1
Encoded date : UTC 2017-08-29 09:37:43
Tagged date : UTC 2017-08-29 09:38:06
Fallback From : 5
Subtitles : 7,8
Menus : 10

Audio #2
ID : 3
Format : AAC
Format/Info : Advanced Audio Codec
Format profile : LC
Codec ID : 40
Duration : 1h 40mn
Bit rate mode : Variable
Bit rate : 155 Kbps
Maximum bit rate : 273 Kbps
Channel(s) : 2 channels
Channel positions : Front: L R
Sampling rate : 48.0 KHz
Frame rate : 46.875 fps (1024 SPF)
Compression mode : Lossy
Stream size : 112 MiB (2%)
Title : English Stereo
Language : English
Default : No
Alternate group : 1
Encoded date : UTC 2017-08-29 09:37:43
Tagged date : UTC 2017-08-29 09:38:06
Fallback From : 6

Audio #3
ID : 4
Format : AAC
Format/Info : Advanced Audio Codec
Format profile : LC
Codec ID : 40
Duration : 1h 40mn
Bit rate mode : Variable
Bit rate : 156 Kbps
Maximum bit rate : 226 Kbps
Channel(s) : 2 channels
Channel positions : Front: L R
Sampling rate : 48.0 KHz
Frame rate : 46.875 fps (1024 SPF)
Compression mode : Lossy
Stream size : 113 MiB (2%)
Title : Ukrainian Stereo
Language : Ukrainian
Default : No
Alternate group : 1
Encoded date : UTC 2017-08-29 09:37:43
Tagged date : UTC 2017-08-29 09:38:06

Audio #4
ID : 5
Format : AC-3
Format/Info : Audio Coding 3
Format settings, Endianness : Big
Codec ID : ac-3
Duration : 1h 40mn
Bit rate mode : Constant
Bit rate : 384 Kbps
Channel(s) : 6 channels
Channel positions : Front: L C R, Side: L R, LFE
Sampling rate : 48.0 KHz
Frame rate : 31.250 fps (1536 SPF)
Bit depth : 16 bits
Compression mode : Lossy
Stream size : 277 MiB (4%)
Title : Russian DD 5.1
Language : Russian
Service kind : Complete Main
Default : Inherited From: 2
Alternate group : 1
Encoded date : UTC 2017-08-29 09:37:43
Tagged date : UTC 2017-08-29 09:37:48
Fallback To : 2
Subtitles : 7,8

Audio #5
ID : 6
Format : AC-3
Format/Info : Audio Coding 3
Format settings, Endianness : Big
Codec ID : ac-3
Duration : 1h 40mn
Bit rate mode : Constant
Bit rate : 640 Kbps
Channel(s) : 6 channels
Channel positions : Front: L C R, Side: L R, LFE
Sampling rate : 48.0 KHz
Frame rate : 31.250 fps (1536 SPF)
Bit depth : 16 bits
Compression mode : Lossy
Stream size : 462 MiB (7%)
Title : English DD 5.1
Language : English
Service kind : Complete Main
Default : No
Alternate group : 1
Encoded date : UTC 2017-08-29 09:37:43
Tagged date : UTC 2017-08-29 09:37:48
Fallback To : 3

Text #1
ID : 7
Format : Timed Text
Muxing mode : sbtl
Codec ID : tx3g
Duration : 1h 40mn
Bit rate mode : Variable
Bit rate : 1 bps
Stream size : 466 Bytes (0%)
Title : Russian forced
Language : Russian
Default : Yes
Forced : Yes
Alternate group : 2
Encoded date : UTC 2017-08-29 09:37:43
Tagged date : UTC 2017-08-29 09:38:12
Subtitles For : 2,5
Full Alternative : 8

Text #2
ID : 8
Format : Timed Text
Muxing mode : sbtl
Codec ID : tx3g
Duration : 1h 40mn
Bit rate mode : Variable
Bit rate : 137 bps
Stream size : 101 KiB (0%)
Title : Russian full
Language : Russian
Default : No
Forced : No
Alternate group : 2
Encoded date : UTC 2017-08-29 09:37:43
Tagged date : UTC 2017-08-29 09:38:12
Subtitles For : 2,5
Forced Alternative : 7

Text #3
ID : 9
Format : Timed Text
Muxing mode : sbtl
Codec ID : tx3g
Duration : 1h 39mn
Bit rate mode : Variable
Bit rate : 115 bps
Stream size : 84.5 KiB (0%)
Title : English full
Language : English
Default : No
Forced : No
Alternate group : 2
Encoded date : UTC 2017-08-29 09:37:43
Tagged date : UTC 2017-08-29 09:38:12

Menu #1
00:00:00.000 : Chapter 1
00:04:44.117 : Chapter 2
00:08:04.818 : Chapter 3
00:15:18.668 : Chapter 4
00:25:45.753 : Chapter 5
00:34:26.606 : Chapter 6
00:39:51.097 : Chapter 7
00:43:10.963 : Chapter 8
00:46:25.825 : Chapter 9
00:49:09.071 : Chapter 10
00:53:43.637 : Chapter 11
00:59:36.948 : Chapter 12
01:02:53.895 : Chapter 13
01:11:56.187 : Chapter 14
01:22:54.845 : Chapter 15
01:30:57.953 : Chapter 16

Menu #2
ID : 10
Codec ID : text
Duration : 1h 40mn
Language : English
Encoded date : UTC 2017-08-29 09:38:12
Tagged date : UTC 2017-08-29 09:38:12
Menu For : 2,1
00:00:00.000 : Chapter 1
00:04:44.117 : Chapter 2
00:08:04.818 : Chapter 3
00:15:18.668 : Chapter 4
00:25:45.753 : Chapter 5
00:34:26.606 : Chapter 6
00:39:51.097 : Chapter 7
00:43:10.963 : Chapter 8
00:46:25.825 : Chapter 9
00:49:09.071 : Chapter 10
00:53:43.637 : Chapter 11
00:59:36.948 : Chapter 12
01:02:53.895 : Chapter 13
01:11:56.187 : Chapter 14
01:22:54.845 : Chapter 15
01:30:57.953 : Chapter 16
Bit rate mode : VBR
x264 [info]: frame I:1297 Avg QP:13.31 size:229362
x264 [info]: frame P:35577 Avg QP:16.44 size: 77773
x264 [info]: frame B:108181 Avg QP:17.37 size: 27598
x264 [info]: consecutive B-frames: 2.8% 5.0% 6.0% 44.6% 12.1% 18.2% 5.3% 5.2% 0.4% 0.1% 0.1% 0.2% 0.0% 0.0% 0.0% 0.0% 0.0%
x264 [info]: mb I I16..4: 13.6% 64.1% 22.3%
x264 [info]: mb P I16..4: 1.9% 17.4% 1.8% P16..4: 35.3% 22.9% 14.0% 0.9% 0.3% skip: 5.4%
x264 [info]: mb B I16..4: 0.1% 1.5% 0.2% B16..8: 41.9% 14.7% 3.7% direct: 6.0% skip:31.9% L0:44.5% L1:40.5% BI:15.1%
x264 [info]: 8x8 transform intra:80.8% inter:45.8%
x264 [info]: direct mvs spatial:98.9% temporal:1.1%
x264 [info]: coded y,uvDC,uvAC intra: 91.5% 88.7% 74.3% inter: 29.2% 28.6% 13.2%
x264 [info]: i16 v,h,dc,p: 18% 16% 17% 49%
x264 [info]: i8 v,h,dc,ddl,ddr,vr,hd,vl,hu: 11% 9% 14% 9% 11% 12% 11% 11% 11%
x264 [info]: i4 v,h,dc,ddl,ddr,vr,hd,vl,hu: 12% 11% 4% 9% 15% 15% 13% 11% 11%
x264 [info]: i8c dc,h,v,p: 47% 19% 19% 15%
x264 [info]: Weighted P-Frames: Y:1.7% UV:1.2%
x264 [info]: ref P L0: 57.1% 8.8% 23.9% 9.9% 0.4% 0.0%
x264 [info]: ref B L0: 87.5% 10.4% 2.2%
x264 [info]: ref B L1: 95.8% 4.2%
x264 [info]: kb/s:7999.94
Apple TV, iPad, iPhone, iPod Touch.
Windows VLC media player

 ·  , , FAQ-
:  [ 29--2017 14:42 ]

  

.torrent

.torrent 67 KB


: 6.69 GB
(hash) : a12773f99fbfad24556f8e8b0705dce1b8edf8f9
··
...

[ATV3] Rough Night . !

!