Скачать через торрент Те, кто охотятся на эльфов бесплатно Аниме Все серии на русском torrent

Если у вас наблюдаются проблемы со скриншотами, переходом по ссылками, скачиванием торрентов - проблемы в блокировщике рекламы AdBlock. #хорошегоДня!


Статистика раздачи
Размер:  4.25 GB   |    Зарегистрирован:  2 месяца 22 дня   |    .torrent скачан:  13 раз   |   
Раздают:  1  
   
Загрузка...
 
Автор Сообщение

Galfimbul

avatar Galfimbul


Те, кто охотятся на эльфов / Those Who Hunt Elves
Год выпуска: 1996
Страна: Япония
Жанр: приключения, комедия, фэнтезиПродолжительность: 12 эп. по 24 мин.
Перевод: Любительский (одноголосый) - Persona99
Оригинальная японская дорожка: присутствует
Субтитры: присутствуют

русские
английские

Режиссер: Катаяма Кадзуёси
Студия: Описание:

Всё начинается в фэнтезийном мире, в котором почему-то оказываются три главных героя: каратист Дзюнпей, актриса Айри, помешанная на оружии школьница Рицуко, а также танк "Мицубиси - 74".
Понимая возможные последствия в случае, если случайные гости останутся в сказочном мире надолго, верховный совет эльфов принимает решение вернуть их назад. Проведение ритуала поручают жрице по имени Цельсия Мари-Клер... И все шло хорошо, но в самом конце Цельсия случайно отвлекается от чтения заклинания и разрывает магическую цепь. Как результат - ритуал провален, а части древнего заклинания разлетелись по миру, оказавшись записанными на телах пятерых избранных женщин-эльфов. У наших героев не остается другого выбора: вместе с Цельсией, для конспирации превратившей себя в собаку, они садятся на танк и отправляются в путешествие с целью ловить и раздевать всех попадающихся на своём пути эльфиек, пока заклинание не будет вновь собрано воедино.Качество: TVRip
Формат: AVI
Видео кодек: XviD
Аудио кодек: MP3 / AC3
Видео: 640x480 пикселей, 23.976 кадр/сек, ~1800 кбит/сек;
Аудио 1: RUS MP3 44 кГц, 2 канала, 128 кбит/сек;
Аудио 2: JAP AC3 48 кГц, 2 канала, 224 кбит/сек.
General
Complete name : D:\Down\Those Who Hunt Elves\Those Who Hunt Elves - 01.avi
Format : AVI
Format/Info : Audio Video Interleave
File size : 371 MiB
Duration : 23mn 38s
Overall bit rate : 2 192 Kbps
Movie name : Those Who Hunt Elves
Part/Position : 01
Part/Total : 12
Director : Encoded by Centaur
Encoded by : Centaur
Subject : 01 Those Who Hunt Elves Attack
Writing application : VirtualDubMod 1.5.10.2 (build 2540/release)
Writing library : VirtualDubMod build 2540/release

Video
ID : 0
Format : MPEG-4 Visual
Format profile : Advanced Simple@L5
Format settings, BVOP : 2
Format settings, QPel : No
Format settings, GMC : 3 warppoints
Format settings, Matrix : Default (H.263)
Codec ID : XVID
Codec ID/Hint : XviD
Duration : 23mn 38s
Bit rate : 1 826 Kbps
Width : 640 pixels
Height : 480 pixels
Display aspect ratio : 4:3
Frame rate : 23.976 fps
Color space : YUV
Chroma subsampling : 4:2:0
Bit depth : 8 bits
Scan type : Progressive
Compression mode : Lossy
Bits/(Pixel*Frame) : 0.248
Stream size : 309 MiB (83%)
Writing library : XviD 1.0.1 (UTC 2004-06-05)

Audio #1
ID : 1
Format : MPEG Audio
Format version : Version 1
Format profile : Layer 3
Mode : Joint stereo
Mode extension : MS Stereo
Codec ID : 55
Codec ID/Hint : MP3
Duration : 23mn 38s
Bit rate mode : Constant
Bit rate : 128 Kbps
Channel(s) : 2 channels
Sampling rate : 44.1 KHz
Compression mode : Lossy
Stream size : 21.6 MiB (6%)
Alignment : Split accross interleaves
Interleave, duration : 42 ms (1.00 video frame)
Interleave, preload duration : 500 ms

Audio #2
ID : 2
Format : AC-3
Format/Info : Audio Coding 3
Mode extension : CM (complete main)
Format settings, Endianness : Big
Codec ID : 2000
Duration : 23mn 38s
Bit rate mode : Constant
Bit rate : 224 Kbps
Channel(s) : 2 channels
Channel positions : Front: L R
Sampling rate : 48.0 KHz
Bit depth : 16 bits
Compression mode : Lossy
Stream size : 37.9 MiB (10%)
Alignment : Split accross interleaves
Interleave, duration : 42 ms (1.00 video frame)
Interleave, preload duration : 500 ms
От раздачи тов. dimdimich

отсутствие хардсаба
лучше качество видео

<div class="sp-wrap">
<div class="sp-head folded">скриншоты сравнения</div>
<div class="sp-body">
<div class="sp-wrap">
<div class="sp-head folded">кадр номер раз</div>
<div class="sp-body">Из моей раздачи:
Из раздачи dimdimich-а:
Из моей раздачи:
Из раздачи dimdimich-а:
Из моей раздачи:
Из раздачи dimdimich-а:
</div>
</div>
</div>
</div>
Субтитры лежат отдельно в папках " Rus Sub" и "Eng Sub". Для того, чтобы смотреть с субтитрами и оригинальной звуковой дорожкой, вам нужно:

скопировать субтитры к нужной серии из папки сабов в папку с видео файлами
в настройках вашего плеера подключить субтитры и переключить звуковую дорожку с русской на японскую.

Большая часть проигрывателей сама распознает дорожку субтитров, лежащую в виде внешнего файла.
01. Those Who Hunt Elves Attack
02. An Invincible Team is Formed
03. The Red One or the Blue One?
04. The Search for the 1000th Fighter
05. The Addition of the Fifth Fiend
06. The Most Horrible Spell of All Time
07. Catch Me in a Field of Flowers
08. To the End of This World and Beyond
09. Let the Maiden Dance in Beauty
10. The Elf Who Couldn't Undress
11. No Tomorrows for the Captured
12. And Yet Those Who Still Hunt Elves


Трекер:  [ 29-Авг-2017 11:30 ]

  

Скачать .torrent

Размер .torrent файла 24 KB


Размер: 4.25 GB
Хэш (hash) релиза: 60870de6870622894a7012dae7b5cda2c63e1d69
Подписка на обновления:

Торренты, похожие на Те, кто охотятся на эльфов скачать торрент

Форум Название Автор Размер S L Добавлен
Аниме | DVD ·· Те, кто охотятся на эльфов / Those Who Hunt Elves / Elf o karu mono-tachi (Катаяма Кадзуёси / Kazuyoshi Katayama, Фукутоми Хироси / Fukutomi Hiroshi)[RUS/JAP+ENG SUB](TV Сезон 1 и 2, 24 из 24) [1996-1997, Комедия, Приключения, Фэнтези, 4хDVD5] Galfimbul 1853923818317.27 GB 2 0 1506017225

21:07

21-Сен-17

Аниме | Rips ·· Те кто охотятся на эльфов (ТВ-1) / Elf wo Karu Monotachi / Those who hunt elves [TV] [12 из 12] [Без хардсаба] [RUS(ext),ENG,JAP + SUB] [1996 г., фэнтези, комедия, приключения, DVDRip] Galfimbul 49521434094.61 GB 0 0 1456607535

00:12

28-Фев-16

Аниме | Rips ·· Те кто охотятся на эльфов 2 (ТВ-2) / Elf wo Karu Monotachi II / Those who hunt elves II [TV] [12 из 12] [Без хардсаба] [RUS(ext), ENG, JAP + SUB] [1997 г., фэнтези, комедия, приключения, DVDRip] Galfimbul 49510962324.61 GB 0 0 1456607521

00:12

28-Фев-16

Аниме | Rips ·· Те кто охотятся на эльфов (первый сезон) / Elf wo Karu Monotachi / Those who hunt elves [TV] [12 из 12] [Без хардсаба] [JAP, ENG, RUS(ext), SUB] [1996 г., фэнтези, комедия, приключения, DVDRip] Galfimbul 45444145134.23 GB 0 0 1359787800

09:50

2-Фев-13

Аниме | DVD ·· Те, кто охотятся на эльфов / Those Who Hunt Elves / Elf o karu mono-tachi [TV] [1-12 из 12(1 сезон); 1-12 из 12(2 сезон)] [RUS,JAP][1996-1997 г., Комедия, Приключения, Фэнтези, 4хDVD5][Любительская] Galfimbul 1853923818317.27 GB 0 0 1310318608

20:23

10-Июл-11

Еще никто не оставлял запись к записи скачать торрент Те, кто охотятся на эльфов . Будь первым!

!Обратная связь