Скачать через торрент Жил-был кот Rudorufu to ippai attena Фильм бесплатно в хорошем качестве torrent

Скачивайте на UnionPeer.org фильмы через торрент без регистрации. Новинки кино в хорошем качестве через торрент. На UnionPeer.org можно скачать через торрент фильмы 2014 и 2015 годов. Самые новые фильмы.

Скачать торрент Жил-был кот Rudorufu to ippai attena бесплатно через .torrent фильм мультфильм сериал

Если у вас наблюдаются проблемы со скриншотами, переходом по ссылками, скачиванием торрентов - проблемы в блокировщике рекламы AdBlock. #хорошегоДня!


Статистика раздачи
Размер:  4.3 GB   |    Зарегистрирован:  1 месяц 25 дней   |    .torrent скачан:  115 раз   |   
Раздают:  2  
   
Загрузка...
 
Автор Сообщение

Galfimbul

avatar Galfimbul


Жил-был кот /Rudorufu to ippai attena / Rudolf The Black Cat

Год выхода: 2016
Жанр: комедия, приключения
Режиссер: Микинори Сакакибара, Кунихико Юяма
В ролях: Мао Иноуэ, Рёхэй Судзуки, Норито Ясима, Арата Фурута, Сандаю Докумамуси, Нана Мидзуки, Рио Сасаки, Юка Тэрасаки, Акио Оцука

О фильме:
История маленького чёрного котёнка с гордым именем Рудольф, жившего счастливо и спокойно ровно до тех пор, пока по роковой случайности он не оказался в неизвестном большом городе. Здесь герою придётся выживать без ласки и заботы хозяев, а ведь раньше он был твёрдо убежден, что всегда будет в полной безопасности. Блуждая по улицам незнакомого города, Рудо встречает взрослого полосатого кота, нагоняющего ужас на всю округу. Он становится для малыша наставником, учит жизни на улице и помогает обрести новых друзей.



Страна: Япония, Канада
Студия: Bandai, Chukyo TV Broadcasting Company (CTV), D.N. Dream Partners, Dentsu
Продолжительность: 01:28:39
Перевод: дублированный

Файл
Кодек: H.264
Качество: BDRip 720p
Видео: AVC, 1280x720 (16:9), 23.976 fps ~ 5666 Kbps
Звук:
AC3, 48 KHz, 2 ch ~ 192 Kb/s (русский)
AC3, 48 KHz, 6 ch ~ 640 Kb/s (японский)
AC3, 48 KHz, 6 ch ~ 448 Kb/s (китайский)
Субтитры: китайские
Общее
Уникальный идентификатор : 191794714676140595850096953362720063377 (0x904A5183C6C3251DA020420B3C9D7F91)
Полное имя : Q:TorFRudolf.the.Black.Cat.2016.720p.mkv
Формат : Matroska
Версия формата : Version 2
Размер файла : 4,30 Гбайт
Продолжительность : 1 ч. 28 м.
Общий поток : 6949 Кбит/сек
Название фильма : Jubowo @ WiKi
Дата кодирования : UTC 2017-08-28 09:58:20
Программа кодирования : mkvmerge v5.4.0 ('Piper') built on Mar 10 2012 13:34:39
Библиотека кодирования : libebml v1.2.3 + libmatroska v1.3.0
DURATION : 01:24:32.856000000
NUMBER_OF_FRAMES : 791
NUMBER_OF_BYTES : 20479
_STATISTICS_WRITING_APP : mkvmerge v9.9.0 ('Pick Up') 64bit
_STATISTICS_WRITING_DATE_UTC : 2017-03-22 14:36:38
_STATISTICS_TAGS : BPS DURATION NUMBER_OF_FRAMES NUMBER_OF_BYTES

Видео
Идентификатор : 1
Формат : AVC
Формат/Информация : Advanced Video Codec
Профиль формата : High@L4.1
Параметр CABAC формата : Да
Параметр ReFrames формата : 9 кадров
Идентификатор кодека : V_MPEG4/ISO/AVC
Продолжительность : 1 ч. 28 м.
Битрейт : 5666 Кбит/сек
Ширина : 1280 пикселей
Высота : 720 пикселей
Соотношение сторон : 16:9
Частота кадров : 23,976 кадра/сек
Цветовое пространство : YUV
Субдискретизация насыщенности : 4:2:0
Битовая глубина : 8 бит
Тип развёртки : Прогрессивная
Бит/(Пиксели*Кадры) : 0.256
Размер потока : 3,42 Гбайт (80%)
Библиотека кодирования : x264 core 129 r2245+704+36 8e61944 tMod+MixAQ [8-bit@4:2:0 X86_64]
Настройки программы : cabac=1 / ref=9 / deblock=1:-1:-1 / analyse=0x3:0x133 / me=umh / subme=11 / psy=1 / fade_compensate=0.00 / psy_rd=1.00:0.00 / mixed_ref=1 / me_range=32 / chroma_me=1 / trellis=2 / 8x8dct=1 / cqm=0 / deadzone=21,11 / fast_pskip=0 / chroma_qp_offset=-2 / threads=18 / lookahead_threads=3 / sliced_threads=0 / nr=0 / decimate=0 / interlaced=0 / bluray_compat=0 / constrained_intra=0 / fgo=0 / bframes=10 / b_pyramid=2 / b_adapt=2 / b_bias=0 / direct=3 / weightb=1 / open_gop=0 / weightp=2 / keyint=250 / keyint_min=23 / scenecut=40 / intra_refresh=0 / rc=2pass / mbtree=0 / bitrate=5666 / ratetol=1.0 / qcomp=0.70 / qpmin=0 / qpmax=69 / qpstep=4 / cplxblur=20.0 / qblur=0.5 / ip_ratio=1.40 / pb_ratio=1.30 / aq=1 / aq-strength=0.95 / aq-sensitivity=10.00 / aq-ifactor=1.00 / aq-pfactor=1.00 / aq-bfactor=1.00 / aq2=0
Язык : Japanese
Default : Да
Forced : Нет
DURATION : 01:28:39.314000000
NUMBER_OF_FRAMES : 127536
NUMBER_OF_BYTES : 3767615535
_STATISTICS_WRITING_APP : mkvmerge v9.9.0 ('Pick Up') 64bit
_STATISTICS_WRITING_DATE_UTC : 2017-03-22 14:36:38
_STATISTICS_TAGS : BPS DURATION NUMBER_OF_FRAMES NUMBER_OF_BYTES

Аудио #1
Идентификатор : 2
Формат : AC-3
Формат/Информация : Audio Coding 3
Расширение режима : CM (complete main)
Идентификатор кодека : A_AC3
Продолжительность : 1 ч. 28 м.
Вид битрейта : Постоянный
Битрейт : 192 Кбит/сек
Каналы : 2 канала
Расположение каналов : Front: L R
Частота : 48,0 КГц
Битовая глубина : 16 бит
Метод сжатия : С потерями
Размер потока : 122 Мбайт (3%)
Заголовок : DUB
Язык : Russian
Default : Да
Forced : Нет

Аудио #2
Идентификатор : 3
Формат : AC-3
Формат/Информация : Audio Coding 3
Расширение режима : CM (complete main)
Идентификатор кодека : A_AC3
Продолжительность : 1 ч. 28 м.
Вид битрейта : Постоянный
Битрейт : 640 Кбит/сек
Каналы : 6 каналов
Расположение каналов : Front: L C R, Side: L R, LFE
Частота : 48,0 КГц
Битовая глубина : 16 бит
Метод сжатия : С потерями
Размер потока : 406 Мбайт (9%)
Язык : Japanese
Default : Нет
Forced : Нет

Аудио #3
Идентификатор : 4
Формат : AC-3
Формат/Информация : Audio Coding 3
Расширение режима : CM (complete main)
Идентификатор кодека : A_AC3
Продолжительность : 1 ч. 28 м.
Вид битрейта : Постоянный
Битрейт : 448 Кбит/сек
Каналы : 6 каналов
Расположение каналов : Front: L C R, Side: L R, LFE
Частота : 48,0 КГц
Битовая глубина : 16 бит
Метод сжатия : С потерями
Размер потока : 284 Мбайт (6%)
Язык : Chinese
Default : Нет
Forced : Нет

Текст #1
Идентификатор : 5
Формат : UTF-8
Идентификатор кодека : S_TEXT/UTF8
Идентификатор кодека/Информация : UTF-8 Plain Text
Заголовок : Simplified
Язык : Chinese
Default : Да
Forced : Нет

Текст #2
Идентификатор : 6
Формат : UTF-8
Идентификатор кодека : S_TEXT/UTF8
Идентификатор кодека/Информация : UTF-8 Plain Text
Заголовок : Traditional
Язык : Chinese
Default : Нет
Forced : Нет

Меню
00:00:00.000 : en:00:00:00.000
00:13:02.823 : en:00:13:02.823
00:28:16.653 : en:00:28:16.653
00:43:11.714 : en:00:43:11.714
00:59:12.840 : en:00:59:12.840
01:09:13.148 : en:01:09:13.148
01:24:27.062 : en:01:24:27.062
Источник http://arutor.org

Трекер:  [ 28-Авг-2017 14:40 ]

  

Скачать .torrent

Размер .torrent файла 22 KB


Размер: 4.3 GB
Хэш (hash) релиза: 096e42097083bf5b68158a53a5e015bde7f73609
Подписка на обновления:

Еще никто не оставлял запись к записи скачать торрент Жил-был кот Rudorufu to ippai attena . Будь первым!

!Обратная связь