Unlocked torrent

, , - AdBlock. #!


3.33 GB   |    :  27    |    .torrent :  6    |   
1  
   
...
 

Galfimbul

avatar Galfimbul


/ Unlocked
,

5.929 / 10 6.10 / 10
: 2017
:
: ,
: 01:38:22

: (iTunes)
:
C:
:
: Β
: , ,
:
:
: , ,
:
: , , , , , , , , ,

: $435 103

: 27 2017
(): 27 2017, û, MEGOGO Distribution

DVD: 24 2017,
Blu-Ray: 24 2017,

: . . , , , . , ? , , ? , : Blu-Ray (BlueBird)
: BDRip
: HD (720p)
: M4V
: H.264, 1280x536, 2.40:1, 3 500 Kbps, 23.976 (24000/1001) fps

1: / (iTunes), AAC / 2.0 / 160 Kbps / 48.0 KHz
2: / , AAC / 2.0 / 160 Kbps / 48.0 KHz
3: / (iTunes), AC-3 / 5.1 / 384 Kbps / 48.0 KHz
4: / , AC-3 / 5.1 / 640 Kbps / 48.0 KHz

:
Sort Name: Unlocked
XID: Apple:vendor_id:2017-568303
contentID: 1228705940
Copyright: 2016 UNLOCKED DISTRIBUTION LIMITED
Screenwriters: Β
Producers: , ,
Director:
Cast: , , , , , , , , ,
Studio: Lionsgate
Rating: 125
Long Description: - . - . , , , . , ? \"\", , ? , ...
Description: - . - . , , , . , ? \"\", , ? , ...
Release Date: 2017-04-27T08:00:00Z
Genre: Action & Adventure
Artist: Michael Apted
Name: Unlocked
General
Complete name : /Users/imac/HandBrake/Unlocked (720p HD).m4v
Format : MPEG-4
Codec ID : M4V (M4V /M4A /mp42/isom)
File size : 3.33 GiB
Duration : 1h 38mn
Overall bit rate mode : Variable
Overall bit rate : 4 842 Kbps
Movie name : Unlocked
Performer : Michael Apted
Director :
Actor : / / / / / / / / /
Screenplay by : Β
Producer : / /
Production studio : Lionsgate
Genre : Action & Adventure
ContentType : Short Film
Description : - . - . , , , . , ? \"\", , ? , ...
Recorded date : UTC 2017-04-27 08:00:00
Encoded date : UTC 2017-08-28 10:30:29
Tagged date : UTC 2017-08-28 10:34:05
Copyright : 2016 UNLOCKED DISTRIBUTION LIMITED
Cover : Yes
Rating : None
Title/Sort : Unlocked
LongDescription : - . - . , , , . , ? \"\", , ? , ...
HDVideo : Yes
AppleStoreCatalogID : 1228705940
Vendor : Apple:vendor_id:2017-568303
ContentRating : uk-movie|15|350|

Video #1
ID : 1
Format : AVC
Format/Info : Advanced Video Codec
Format profile : High@L3.1
Format settings, CABAC : No
Format settings, ReFrames : 3 frames
Codec ID : avc1
Codec ID/Info : Advanced Video Coding
Duration : 1h 38mn
Source duration : 1h 38mn
Bit rate : 3 500 Kbps
Width : 1 280 pixels
Height : 536 pixels
Display aspect ratio : 2.40:1
Frame rate mode : Variable
Frame rate : 23.976 (24000/1001) fps
Minimum frame rate : 23.974 fps
Maximum frame rate : 23.981 fps
Color space : YUV
Chroma subsampling : 4:2:0
Bit depth : 8 bits
Scan type : Progressive
Bits/(Pixel*Frame) : 0.213
Stream size : 2.40 GiB (72%)
Source stream size : 2.40 GiB (72%)
Title : Main Program
Writing library : x264 core 148 r2708 86b7198
Encoding settings : cabac=0 / ref=3 / deblock=1:-3:-3 / analyse=0x3:0x113 / me=umh / subme=9 / psy=1 / psy_rd=1.00:0.15 / mixed_ref=1 / me_range=32 / chroma_me=1 / trellis=0 / 8x8dct=1 / cqm=0 / deadzone=21,11 / fast_pskip=0 / chroma_qp_offset=-2 / threads=17 / lookahead_threads=1 / sliced_threads=0 / nr=0 / decimate=0 / interlaced=0 / bluray_compat=0 / constrained_intra=0 / bframes=3 / b_pyramid=0 / b_adapt=2 / b_bias=0 / direct=1 / weightb=0 / open_gop=0 / weightp=0 / keyint=240 / keyint_min=24 / scenecut=40 / intra_refresh=0 / rc_lookahead=40 / rc=2pass / mbtree=1 / bitrate=3500 / ratetol=1.0 / qcomp=0.65 / qpmin=0 / qpmax=69 / qpstep=4 / cplxblur=20.0 / qblur=0.5 / vbv_maxrate=9500 / vbv_bufsize=9500 / nal_hrd=none / filler=0 / ip_ratio=1.40 / aq=1:1.10
Language : English
Encoded date : UTC 2017-08-28 10:30:29
Tagged date : UTC 2017-08-28 10:30:38
Color range : Limited
Color primaries : BT.709
Transfer characteristics : BT.709
Matrix coefficients : BT.709
Menus : 7,8

Video #2
ID : 8
Format : JPEG
Codec ID : jpeg
Duration : 1h 38mn
Bit rate mode : Variable
Bit rate : 530 bps
Width : 640 pixels
Height : 268 pixels
Display aspect ratio : 2.40:1
Frame rate mode : Variable
Frame rate : 0.002 fps
Minimum frame rate : 0.001 fps
Maximum frame rate : 0.003 fps
Color space : YUV
Chroma subsampling : 4:2:0
Bit depth : 8 bits
Compression mode : Lossy
Bits/(Pixel*Frame) : 1.545
Stream size : 388 KiB (0%)
Title : Chapter Images
Language : English
Default : No
Encoded date : UTC 2017-08-28 10:31:11
Tagged date : UTC 2017-08-28 10:31:11
Menu For : 1

Audio #1
ID : 2
Format : AAC
Format/Info : Advanced Audio Codec
Format profile : LC
Codec ID : 40
Duration : 1h 38mn
Bit rate mode : Variable
Bit rate : 156 Kbps
Maximum bit rate : 253 Kbps
Channel(s) : 2 channels
Channel positions : Front: L R
Sampling rate : 48.0 KHz
Frame rate : 46.875 fps (1024 SPF)
Compression mode : Lossy
Stream size : 110 MiB (3%)
Title : Russian Stereo
Language : Russian
Default : Yes
Alternate group : 1
Encoded date : UTC 2017-08-28 10:30:29
Tagged date : UTC 2017-08-28 10:31:07
Fallback From : 4

Audio #2
ID : 3
Format : AAC
Format/Info : Advanced Audio Codec
Format profile : LC
Codec ID : 40
Duration : 1h 38mn
Bit rate mode : Variable
Bit rate : 158 Kbps
Maximum bit rate : 231 Kbps
Channel(s) : 2 channels
Channel positions : Front: L R
Sampling rate : 48.0 KHz
Frame rate : 46.875 fps (1024 SPF)
Compression mode : Lossy
Stream size : 111 MiB (3%)
Title : English Stereo
Language : English
Default : No
Alternate group : 1
Encoded date : UTC 2017-08-28 10:30:29
Tagged date : UTC 2017-08-28 10:31:07
Fallback From : 5

Audio #3
ID : 4
Format : AC-3
Format/Info : Audio Coding 3
Format settings, Endianness : Big
Codec ID : ac-3
Duration : 1h 38mn
Bit rate mode : Constant
Bit rate : 384 Kbps
Channel(s) : 6 channels
Channel positions : Front: L C R, Side: L R, LFE
Sampling rate : 48.0 KHz
Frame rate : 31.250 fps (1536 SPF)
Bit depth : 16 bits
Compression mode : Lossy
Stream size : 270 MiB (8%)
Title : Russian DD 5.1
Language : Russian
Service kind : Complete Main
Default : Inherited From: 2
Alternate group : 1
Encoded date : UTC 2017-08-28 10:30:29
Tagged date : UTC 2017-08-28 10:31:07
Fallback To : 2

Audio #4
ID : 5
Format : AC-3
Format/Info : Audio Coding 3
Format settings, Endianness : Big
Codec ID : ac-3
Duration : 1h 38mn
Bit rate mode : Constant
Bit rate : 640 Kbps
Channel(s) : 6 channels
Channel positions : Front: L C R, Side: L R, LFE
Sampling rate : 48.0 KHz
Frame rate : 31.250 fps (1536 SPF)
Bit depth : 16 bits
Compression mode : Lossy
Stream size : 450 MiB (13%)
Title : English DD 5.1
Language : English
Service kind : Complete Main
Default : No
Alternate group : 1
Encoded date : UTC 2017-08-28 10:30:29
Tagged date : UTC 2017-08-28 10:30:35
Fallback To : 3

Text
ID : 6
Format : Timed Text
Muxing mode : sbtl
Codec ID : tx3g
Duration : 1h 32mn
Bit rate mode : Variable
Bit rate : 62 bps
Stream size : 42.1 KiB (0%)
Title : English full
Language : English
Default : Yes
Forced : No
Alternate group : 2
Encoded date : UTC 2017-08-28 10:30:29
Tagged date : UTC 2017-08-28 10:31:05

Menu #1
00:00:00.000 : 00:00:00.000
00:07:36.623 : 00:07:36.583
00:16:21.647 : 00:16:21.583
00:23:34.455 : 00:23:34.417
00:31:06.406 : 00:31:06.250
00:38:49.160 : 00:38:49.125
00:47:00.526 : 00:47:00.500
00:53:55.357 : 00:53:55.333
01:03:15.292 : 01:03:15.208
01:09:50.269 : 01:09:50.250
01:17:26.684 : 01:17:26.667
01:24:01.703 : 01:24:01.542

Menu #2
ID : 7
Codec ID : text
Duration : 1h 38mn
Language : English
Encoded date : UTC 2017-08-28 10:31:07
Tagged date : UTC 2017-08-28 10:31:07
Bit rate mode : CBR
Menu For : 1
00:00:00.000 : 00:00:00.000
00:07:36.623 : 00:07:36.583
00:16:21.647 : 00:16:21.583
00:23:34.455 : 00:23:34.417
00:31:06.406 : 00:31:06.250
00:38:49.160 : 00:38:49.125
00:47:00.526 : 00:47:00.500
00:53:55.357 : 00:53:55.333
01:03:15.292 : 01:03:15.208
01:09:50.269 : 01:09:50.250
01:17:26.684 : 01:17:26.667
01:24:01.703 : 01:24:01.542
x264 [info]: frame I:1604 Avg QP:14.08 size: 96306
x264 [info]: frame P:48162 Avg QP:16.85 size: 32969
x264 [info]: frame B:91742 Avg QP:17.77 size: 9111
x264 [info]: consecutive B-frames: 3.7% 22.5% 21.4% 52.4%
x264 [info]: mb I I16..4: 8.8% 60.4% 30.8%
x264 [info]: mb P I16..4: 2.6% 7.8% 2.8% P16..4: 42.7% 25.2% 10.2% 0.0% 0.0% skip: 8.7%
x264 [info]: mb B I16..4: 0.3% 0.8% 0.3% B16..8: 45.3% 11.3% 1.6% direct: 4.8% skip:35.7% L0:41.9% L1:51.1% BI: 7.0%
x264 [info]: 8x8 transform intra:59.4% inter:45.7%
x264 [info]: coded y,uvDC,uvAC intra: 75.8% 77.6% 58.2% inter: 25.3% 24.0% 12.5%
x264 [info]: i16 v,h,dc,p: 52% 14% 8% 27%
x264 [info]: i8 v,h,dc,ddl,ddr,vr,hd,vl,hu: 13% 8% 11% 10% 13% 13% 12% 11% 10%
x264 [info]: i4 v,h,dc,ddl,ddr,vr,hd,vl,hu: 14% 8% 8% 11% 15% 14% 12% 10% 8%
x264 [info]: i8c dc,h,v,p: 55% 15% 21% 9%
x264 [info]: ref P L0: 71.5% 16.9% 11.5%
x264 [info]: ref B L0: 80.5% 19.5%
x264 [info]: kb/s:3494.61
Apple TV, iPad, iPhone, iPod Touch.
Windows VLC media player

 ·  , , FAQ-
:  [ 28--2017 14:12 ]

  

.torrent

.torrent 33 KB


: 3.33 GB
(hash) : 8cb5d43743d2fa38c5988abd79c338386b66b9cc
··
...

Unlocked . !

!