[ATV3] Unlocked torrent

, , - AdBlock. #!


6.29 GB   |    :  27    |    .torrent :  10    |   
1  
   
...
 

Galfimbul

avatar Galfimbul


/ Unlocked
,

5.929 / 10 6.10 / 10
: 2017
:
: ,
: 01:38:22

: (iTunes)
:
C:
:
: Β
: , ,
:
:
: , ,
:
: , , , , , , , , ,

: $435 103

: 27 2017
(): 27 2017, û, MEGOGO Distribution

DVD: 24 2017,
Blu-Ray: 24 2017,

: . . , , , . , ? , , ? , : Blu-Ray (BlueBird)
: BDRip
: HD (1080p)
: M4V
: H.264, 1920x800, 2.40:1, 8 000 Kbps, 23.976 (24000/1001) fps

1: / (iTunes), AAC / 2.0 / 160 Kbps / 48.0 KHz
2: / , AAC / 2.0 / 160 Kbps / 48.0 KHz
3: / (iTunes), AC-3 / 5.1 / 384 Kbps / 48.0 KHz
4: / , AC-3 / 5.1 / 448 Kbps / 48.0 KHz

:
Sort Name: Unlocked
XID: Apple:vendor_id:2017-568303
contentID: 1228705940
Copyright: 2016 UNLOCKED DISTRIBUTION LIMITED
Screenwriters: Β
Producers: , ,
Director:
Cast: , , , , , , , , ,
Studio: Lionsgate
Rating: 125
Long Description: - . - . , , , . , ? \"\", , ? , ...
Description: - . - . , , , . , ? \"\", , ? , ...
Release Date: 2017-04-27T08:00:00Z
Genre: Action & Adventure
Artist: Michael Apted
Name: Unlocked
General
Complete name : /Users/imac/HandBrake/Unlocked (1080p HD).m4v
Format : MPEG-4
Codec ID : M4V (M4V /M4A /mp42/isom)
File size : 6.29 GiB
Duration : 1h 38mn
Overall bit rate mode : Variable
Overall bit rate : 9 155 Kbps
Movie name : Unlocked
Performer : Michael Apted
Director :
Actor : / / / / / / / / /
Screenplay by : Β
Producer : / /
Production studio : Lionsgate
Genre : Action & Adventure
ContentType : Short Film
Description : - . - . , , , . , ? \"\", , ? , ...
Recorded date : UTC 2017-04-27 08:00:00
Encoded date : UTC 2017-08-28 08:47:40
Tagged date : UTC 2017-08-28 08:52:53
Copyright : 2016 UNLOCKED DISTRIBUTION LIMITED
Cover : Yes
Rating : None
Title/Sort : Unlocked
LongDescription : - . - . , , , . , ? \"\", , ? , ...
AppleStoreCatalogID : 1228705940
Vendor : Apple:vendor_id:2017-568303
ContentRating : uk-movie|15|350|

Video #1
ID : 1
Format : AVC
Format/Info : Advanced Video Codec
Format profile : High@L4
Format settings, CABAC : Yes
Format settings, ReFrames : 4 frames
Codec ID : avc1
Codec ID/Info : Advanced Video Coding
Duration : 1h 38mn
Source duration : 1h 38mn
Bit rate : 8 000 Kbps
Width : 1 920 pixels
Height : 800 pixels
Display aspect ratio : 2.40:1
Frame rate mode : Variable
Frame rate : 23.976 (24000/1001) fps
Minimum frame rate : 23.974 fps
Maximum frame rate : 23.981 fps
Color space : YUV
Chroma subsampling : 4:2:0
Bit depth : 8 bits
Scan type : Progressive
Bits/(Pixel*Frame) : 0.217
Stream size : 5.50 GiB (87%)
Source stream size : 5.50 GiB (87%)
Title : Main Program
Writing library : x264 core 148 r2708 86b7198
Encoding settings : cabac=1 / ref=4 / deblock=1:-2:-2 / analyse=0x3:0x133 / me=umh / subme=10 / psy=1 / psy_rd=1.00:0.15 / mixed_ref=1 / me_range=32 / chroma_me=1 / trellis=2 / 8x8dct=1 / cqm=0 / deadzone=21,11 / fast_pskip=1 / chroma_qp_offset=-3 / threads=25 / lookahead_threads=6 / sliced_threads=0 / nr=0 / decimate=0 / interlaced=0 / bluray_compat=0 / constrained_intra=0 / bframes=16 / b_pyramid=2 / b_adapt=2 / b_bias=0 / direct=3 / weightb=1 / open_gop=0 / weightp=2 / keyint=240 / keyint_min=24 / scenecut=40 / intra_refresh=0 / rc_lookahead=40 / rc=2pass / mbtree=1 / bitrate=8000 / ratetol=1.0 / qcomp=0.70 / qpmin=0 / qpmax=69 / qpstep=4 / cplxblur=20.0 / qblur=0.5 / ip_ratio=1.40 / aq=1:1.00
Language : English
Encoded date : UTC 2017-08-28 08:47:40
Tagged date : UTC 2017-08-28 08:47:58
Color range : Limited
Color primaries : BT.709
Transfer characteristics : BT.709
Matrix coefficients : BT.709
Menus : 7,8

Video #2
ID : 8
Format : JPEG
Codec ID : jpeg
Duration : 1h 38mn
Bit rate mode : Variable
Bit rate : 525 bps
Width : 640 pixels
Height : 266 pixels
Display aspect ratio : 2.40:1
Frame rate mode : Variable
Frame rate : 0.002 fps
Minimum frame rate : 0.001 fps
Maximum frame rate : 0.003 fps
Color space : YUV
Chroma subsampling : 4:2:0
Bit depth : 8 bits
Compression mode : Lossy
Bits/(Pixel*Frame) : 1.542
Stream size : 384 KiB (0%)
Title : Chapter Images
Language : English
Default : No
Encoded date : UTC 2017-08-28 08:48:47
Tagged date : UTC 2017-08-28 08:48:47
Menu For : 1

Audio #1
ID : 2
Format : AAC
Format/Info : Advanced Audio Codec
Format profile : LC
Codec ID : 40
Duration : 1h 38mn
Bit rate mode : Variable
Bit rate : 156 Kbps
Maximum bit rate : 253 Kbps
Channel(s) : 2 channels
Channel positions : Front: L R
Sampling rate : 48.0 KHz
Frame rate : 46.875 fps (1024 SPF)
Compression mode : Lossy
Stream size : 110 MiB (2%)
Title : Russian Stereo
Language : Russian
Default : Yes
Alternate group : 1
Encoded date : UTC 2017-08-28 08:47:40
Tagged date : UTC 2017-08-28 08:47:59
Fallback From : 4
Menus : 7

Audio #2
ID : 3
Format : AAC
Format/Info : Advanced Audio Codec
Format profile : LC
Codec ID : 40
Duration : 1h 38mn
Bit rate mode : Variable
Bit rate : 158 Kbps
Maximum bit rate : 231 Kbps
Channel(s) : 2 channels
Channel positions : Front: L R
Sampling rate : 48.0 KHz
Frame rate : 46.875 fps (1024 SPF)
Compression mode : Lossy
Stream size : 111 MiB (2%)
Title : English Stereo
Language : English
Default : No
Alternate group : 1
Encoded date : UTC 2017-08-28 08:47:40
Tagged date : UTC 2017-08-28 08:47:59
Fallback From : 5

Audio #3
ID : 4
Format : AC-3
Format/Info : Audio Coding 3
Format settings, Endianness : Big
Codec ID : ac-3
Duration : 1h 38mn
Bit rate mode : Constant
Bit rate : 384 Kbps
Channel(s) : 6 channels
Channel positions : Front: L C R, Side: L R, LFE
Sampling rate : 48.0 KHz
Frame rate : 31.250 fps (1536 SPF)
Bit depth : 16 bits
Compression mode : Lossy
Stream size : 270 MiB (4%)
Title : Russian DD 5.1
Language : Russian
Service kind : Complete Main
Default : Inherited From: 2
Alternate group : 1
Encoded date : UTC 2017-08-28 08:47:40
Tagged date : UTC 2017-08-28 08:48:40
Fallback To : 2

Audio #4
ID : 5
Format : AC-3
Format/Info : Audio Coding 3
Format settings, Endianness : Big
Codec ID : ac-3
Duration : 1h 38mn
Bit rate mode : Constant
Bit rate : 448 Kbps
Channel(s) : 6 channels
Channel positions : Front: L C R, Side: L R, LFE
Sampling rate : 48.0 KHz
Frame rate : 31.250 fps (1536 SPF)
Bit depth : 16 bits
Compression mode : Lossy
Stream size : 315 MiB (5%)
Title : English DD 5.1
Language : English
Service kind : Complete Main
Default : No
Alternate group : 1
Encoded date : UTC 2017-08-28 08:47:40
Tagged date : UTC 2017-08-28 08:48:40
Fallback To : 3

Text
ID : 6
Format : Timed Text
Muxing mode : sbtl
Codec ID : tx3g
Duration : 1h 32mn
Bit rate mode : Variable
Bit rate : 62 bps
Stream size : 42.1 KiB (0%)
Title : English full
Language : English
Default : Yes
Forced : No
Alternate group : 2
Encoded date : UTC 2017-08-28 08:47:40
Tagged date : UTC 2017-08-28 08:48:40

Menu #1
00:00:00.000 : 00:00:00.000
00:07:36.623 : 00:07:36.583
00:16:21.647 : 00:16:21.583
00:23:34.455 : 00:23:34.417
00:31:06.406 : 00:31:06.250
00:38:49.160 : 00:38:49.125
00:47:00.526 : 00:47:00.500
00:53:55.357 : 00:53:55.333
01:03:15.292 : 01:03:15.208
01:09:50.269 : 01:09:50.250
01:17:26.684 : 01:17:26.667
01:24:01.703 : 01:24:01.542

Menu #2
ID : 7
Codec ID : text
Duration : 1h 38mn
Language : English
Encoded date : UTC 2017-08-28 08:48:40
Tagged date : UTC 2017-08-28 08:48:40
Bit rate mode : CBR
Menu For : 2,1
00:00:00.000 : 00:00:00.000
00:07:36.623 : 00:07:36.583
00:16:21.647 : 00:16:21.583
00:23:34.455 : 00:23:34.417
00:31:06.406 : 00:31:06.250
00:38:49.160 : 00:38:49.125
00:47:00.526 : 00:47:00.500
00:53:55.357 : 00:53:55.333
01:03:15.292 : 01:03:15.208
01:09:50.269 : 01:09:50.250
01:17:26.684 : 01:17:26.667
01:24:01.703 : 01:24:01.542
x264 [info]: frame I:993 Avg QP:15.63 size:195851
x264 [info]: frame P:31666 Avg QP:18.80 size: 66841
x264 [info]: frame B:108849 Avg QP:19.47 size: 32989
x264 [info]: consecutive B-frames: 4.0% 4.7% 8.7% 14.1% 15.3% 14.1% 7.2% 25.0% 5.1% 0.8% 0.2% 0.3% 0.1% 0.1% 0.0% 0.2% 0.1%
x264 [info]: mb I I16..4: 19.1% 63.4% 17.5%
x264 [info]: mb P I16..4: 6.2% 20.8% 1.7% P16..4: 33.3% 13.6% 8.2% 0.2% 0.1% skip:16.0%
x264 [info]: mb B I16..4: 1.2% 3.0% 0.2% B16..8: 43.1% 9.1% 2.1% direct:10.4% skip:31.0% L0:46.4% L1:43.8% BI: 9.8%
x264 [info]: 8x8 transform intra:70.7% inter:62.1%
x264 [info]: direct mvs spatial:97.9% temporal:2.1%
x264 [info]: coded y,uvDC,uvAC intra: 77.4% 73.3% 46.9% inter: 32.6% 34.2% 10.0%
x264 [info]: i16 v,h,dc,p: 29% 13% 29% 29%
x264 [info]: i8 v,h,dc,ddl,ddr,vr,hd,vl,hu: 12% 8% 17% 9% 11% 11% 11% 10% 11%
x264 [info]: i4 v,h,dc,ddl,ddr,vr,hd,vl,hu: 14% 10% 16% 8% 11% 11% 10% 9% 10%
x264 [info]: i8c dc,h,v,p: 49% 21% 20% 10%
x264 [info]: Weighted P-Frames: Y:2.2% UV:0.7%
x264 [info]: ref P L0: 53.6% 10.7% 24.9% 10.5% 0.3% 0.0%
x264 [info]: ref B L0: 84.2% 13.4% 2.4%
x264 [info]: ref B L1: 93.6% 6.4%
x264 [info]: kb/s:7999.79
Apple TV, iPad, iPhone, iPod Touch.
Windows VLC media player

 ·  , , FAQ-
:  [ 28--2017 13:12 ]

  

.torrent

.torrent 63 KB


: 6.29 GB
(hash) : e3a69413728619289689361b202122a2a52bd81b
··
...

, [ATV3] Unlocked

S L
(iPhone/iPod Touch/iPad) ·· [ATV3] / Unlocked ( / Michael Apted ) [2017, , , , WEB-DL, HD (1080p)] DUB Galfimbul 37528596503.5 GB 0 0 1499256760

15:12

5--17

[ATV3] Unlocked . !

!