Скачать через торрент Орёл и решка. Рай и ад 2 Фильм бесплатно в хорошем качестве torrent

Скачивайте на UnionPeer.org фильмы через торрент без регистрации. Новинки кино в хорошем качестве через торрент. На UnionPeer.org можно скачать через торрент фильмы 2014 и 2015 годов. Самые новые фильмы.

Скачать торрент Орёл и решка. Рай и ад 2 бесплатно через .torrent фильм мультфильм сериал

Если у вас наблюдаются проблемы со скриншотами, переходом по ссылками, скачиванием торрентов - проблемы в блокировщике рекламы AdBlock. #хорошегоДня!


Статистика раздачи
Размер:  629 MB   |    Зарегистрирован:  25 дней   |    .torrent скачан:  9 раз   |   
Раздают:  1  
   
Загрузка...
 
Автор Сообщение

Galfimbul

avatar Galfimbul


Орёл и решка. Рай и ад 2

Дата/Год выпуска: 2017
Страна: Украина
Жанр: путешествия
Продолжительность: 1x50 минут
Перевод: Не требуется
Русские субтитры: нет

Оригинальная аудиодорожка: русский
Режиссер: Регина Тодоренко и Натали Неведрова
Телеканал: IнтерОписание: Команда проекта продолжит свои "райско-адские" путешествия по миру, но во второй части "Рая и ада" зрителей ждут изменения. Во-первых, немного поменяется концепция: теперь прекрасное и ужасное будут искать в каждом исследуемом городе. Во-вторых, в 15-м сезоне вместо ушедшей в отпуск Леси Никитюк путешествовать с Региной Тодоренко будет новый ведущий. Его имя поклонники проекта узнают совсем скоро! Еще один сюрприз - первые выпуски 15-го сезона посвящены особенностям безвизового режима для украинцев. Куда можно и нужно поехать, где лучше наслаждаться отдыхом, чего бояться и опасаться в путешествиях - все это в новом сезоне проекта "Орел и решка. Рай и ад 2".Сэмпл: http://sendfile.su/1357889

качество: SATRip
формат: AVI
Видео: Xvid 720x400 (16:9) ~1536kbps 25fps
Аудио: MP3 192kbps 48kHz 2ch
1. Сардиния (Италия). Первую остановку команда программы сделает на Сардинии - красивейшем итальянском острове в водах Средиземного моря, где отдыхают помешанные на приватности самые богатые и знаменитые люди мира. Богатый ведущий покажет, где развлекаются, едят и живут миллионеры, чтобы об этом никто и никогда не узнал. А бедный посетит самые странные и неповторимые места Сардинии. Телезрителей ждут прогулки на огромных яхтах и ночевка на вилле, где жила сама принцесса Диана. А также песни космических камней и поиски счастья на ферме с позитивной энергетикой.
GeneralComplete name : E:\Мои раздачи\Телепрограммы\Орёл и решка. Рай и ад 2 [15 сезон]\01. Сардиния.aviFormat : AVIFormat/Info : Audio Video InterleaveFile size : 629 MiBDuration : 50 min 40 sOverall bit rate : 1 736 kb/s

VideoID : 0Format : MPEG-4 VisualFormat profile : Advanced Simple@L5Format settings, BVOP : 2Format settings, QPel : NoFormat settings, GMC : No warppointsFormat settings, Matrix : Default (H.263)Codec ID : XVIDCodec ID/Hint : XviDDuration : 50 min 40 sBit rate : 1 534 kb/sWidth : 720 pixelsHeight : 400 pixelsDisplay aspect ratio : 16:9Frame rate : 25.000 FPSColor space : YUVChroma subsampling : 4:2:0Bit depth : 8 bitsScan type : ProgressiveCompression mode : LossyBits/(Pixel*Frame) : 0.213Stream size : 556 MiB (88%)Writing library : XviD 73

AudioID : 1Format : MPEG AudioFormat version : Version 1Format profile : Layer 3Mode : Joint stereoCodec ID : 55Codec ID/Hint : MP3Duration : 50 min 40 sBit rate mode : ConstantBit rate : 192 kb/sChannel(s) : 2 channelsSampling rate : 48.0 kHzCompression mode : LossyStream size : 69.6 MiB (11%)Alignment : Split accross interleavesInterleave, duration : 40 ms (1.00 video frame)Interleave, preload duratio : 500 ms


Трекер:  [ 27-Авг-2017 20:42 ]

  

Скачать .torrent

Размер .torrent файла 13 KB


Размер: 629 MB
Хэш (hash) релиза: d73f0e7e95c54a9282d02285b1a9a90bce2f7259
Подписка на обновления:

Еще никто не оставлял запись к записи скачать торрент Орёл и решка. Рай и ад 2 . Будь первым!

!Обратная связь