[ATV3] La reina de España torrent

, , - AdBlock. #!


8.39 GB   |    :  2 28    |    .torrent :  4    |   
1  
   
...
 

Galfimbul

avatar Galfimbul


/ La reina de España
-

5.598 / 10 4.90 / 10
: 2016
:
: ,
: 02:07:36

: ()
:
C: ()
:
:
: , ,
:
:
: , ,
:
: , , , , , , , , ,

: 11 000 000
: $75 726

: 16 2016
(): 6 2017,

: , , . , , , I. : BDRemux (HDClub)
: BDRip
: HD (1080p)
: M4V
: H.264, 1920x800, 2.40:1, 8 000 Kbps, 23.976 (24000/1001) fps

1: / (), AAC / 2.0 / 160 Kbps / 48.0 KHz
2: / , AAC / 2.0 / 160 Kbps / 48.0 KHz
3: / (), AC-3 / 5.1 / 448 Kbps / 48.0 KHz
4: / , AC-3 / 5.1 / 640 Kbps / 48.0 KHz
Sort Name:
XID: Apple:vendor_id:2016-709487
contentID: 1220823293
Copyright: 2017 Paradise
Screenwriters:
Producers: , ,
Director:
Cast: , , , , , , , , , , , , , ,
Studio: Atresmedia Cine, Fernando Trueba Producciones Cinematográficas S.A.
Rating: 135
Long Description: , , . , , , I. ...
Description: , , . , , , I. ...
Release Date: 2016-11-16T08:00:00Z
Genre:
Artist:
Name:
General
Complete name : /Users/imac/HandBrake/The Queen of Spain (1080p HD).m4v
Format : MPEG-4
Codec ID : M4V (M4V /M4A /mp42/isom)
File size : 8.39 GiB
Duration : 2h 7mn
Overall bit rate mode : Variable
Overall bit rate : 9 409 Kbps
Movie name :
Performer :
Director :
Actor : / / / / / / / / / / / / / /
Screenplay by :
Producer : / /
Production studio : Atresmedia Cine, Fernando Trueba Producciones Cinematográficas S.A.
Genre :
ContentType : Short Film
Description : , , . , , , I. ...
Recorded date : UTC 2016-11-16 08:00:00
Encoded date : UTC 2017-08-27 10:11:39
Tagged date : UTC 2017-08-27 10:16:15
Copyright : 2017 Paradise
Cover : Yes
Rating : None
Title/Sort :
LongDescription : , , . , , , I. ...
AppleStoreCatalogID : 1220823293
Vendor : Apple:vendor_id:2016-709487
ContentRating : ru-movie|16+|375|

Video #1
ID : 1
Format : AVC
Format/Info : Advanced Video Codec
Format profile : High@L4
Format settings, CABAC : Yes
Format settings, ReFrames : 4 frames
Codec ID : avc1
Codec ID/Info : Advanced Video Coding
Duration : 2h 7mn
Source duration : 2h 7mn
Bit rate : 8 000 Kbps
Width : 1 920 pixels
Height : 800 pixels
Display aspect ratio : 2.40:1
Frame rate mode : Variable
Frame rate : 23.976 (24000/1001) fps
Minimum frame rate : 23.974 fps
Maximum frame rate : 23.981 fps
Color space : YUV
Chroma subsampling : 4:2:0
Bit depth : 8 bits
Scan type : Progressive
Bits/(Pixel*Frame) : 0.217
Stream size : 7.13 GiB (85%)
Source stream size : 7.13 GiB (85%)
Title : Main Program
Writing library : x264 core 148 r2708 86b7198
Encoding settings : cabac=1 / ref=4 / deblock=1:-2:-2 / analyse=0x3:0x133 / me=umh / subme=10 / psy=1 / psy_rd=1.00:0.15 / mixed_ref=1 / me_range=32 / chroma_me=1 / trellis=2 / 8x8dct=1 / cqm=0 / deadzone=21,11 / fast_pskip=1 / chroma_qp_offset=-3 / threads=25 / lookahead_threads=6 / sliced_threads=0 / nr=0 / decimate=0 / interlaced=0 / bluray_compat=0 / constrained_intra=0 / bframes=16 / b_pyramid=2 / b_adapt=2 / b_bias=0 / direct=3 / weightb=1 / open_gop=0 / weightp=2 / keyint=240 / keyint_min=24 / scenecut=40 / intra_refresh=0 / rc_lookahead=40 / rc=2pass / mbtree=1 / bitrate=8000 / ratetol=1.0 / qcomp=0.70 / qpmin=0 / qpmax=69 / qpstep=4 / cplxblur=20.0 / qblur=0.5 / ip_ratio=1.40 / aq=1:1.00
Language : Spanish
Encoded date : UTC 2017-08-27 10:11:39
Tagged date : UTC 2017-08-27 10:12:02
Color range : Limited
Color primaries : BT.709
Transfer characteristics : BT.709
Matrix coefficients : BT.709
Menus : 6,7

Video #2
ID : 7
Format : JPEG
Codec ID : jpeg
Duration : 2h 7mn
Bit rate mode : Variable
Bit rate : 503 bps
Width : 640 pixels
Height : 266 pixels
Display aspect ratio : 2.40:1
Frame rate mode : Variable
Frame rate : 0.002 fps
Minimum frame rate : 0.001 fps
Maximum frame rate : 0.010 fps
Color space : YUV
Chroma subsampling : 4:2:0
Bit depth : 8 bits
Compression mode : Lossy
Bits/(Pixel*Frame) : 1.477
Stream size : 522 KiB (0%)
Title : Chapter Images
Language : Spanish
Default : No
Encoded date : UTC 2017-08-27 10:12:11
Tagged date : UTC 2017-08-27 10:12:11
Menu For : 1

Audio #1
ID : 2
Format : AAC
Format/Info : Advanced Audio Codec
Format profile : LC
Codec ID : 40
Duration : 2h 7mn
Bit rate mode : Variable
Bit rate : 157 Kbps
Maximum bit rate : 263 Kbps
Channel(s) : 2 channels
Channel positions : Front: L R
Sampling rate : 48.0 KHz
Frame rate : 46.875 fps (1024 SPF)
Compression mode : Lossy
Stream size : 143 MiB (2%)
Title : Russian Stereo
Language : Russian
Default : Yes
Alternate group : 1
Encoded date : UTC 2017-08-27 10:11:39
Tagged date : UTC 2017-08-27 10:12:03
Fallback From : 4
Menus : 6

Audio #2
ID : 3
Format : AAC
Format/Info : Advanced Audio Codec
Format profile : LC
Codec ID : 40
Duration : 2h 7mn
Bit rate mode : Variable
Bit rate : 158 Kbps
Maximum bit rate : 256 Kbps
Channel(s) : 2 channels
Channel positions : Front: L R
Sampling rate : 48.0 KHz
Frame rate : 46.875 fps (1024 SPF)
Compression mode : Lossy
Stream size : 144 MiB (2%)
Title : Spanish Stereo
Language : Spanish
Default : No
Alternate group : 1
Encoded date : UTC 2017-08-27 10:11:39
Tagged date : UTC 2017-08-27 10:12:03
Fallback From : 5

Audio #3
ID : 4
Format : AC-3
Format/Info : Audio Coding 3
Format settings, Endianness : Big
Codec ID : ac-3
Duration : 2h 7mn
Bit rate mode : Constant
Bit rate : 448 Kbps
Channel(s) : 6 channels
Channel positions : Front: L C R, Side: L R, LFE
Sampling rate : 48.0 KHz
Frame rate : 31.250 fps (1536 SPF)
Bit depth : 16 bits
Compression mode : Lossy
Stream size : 409 MiB (5%)
Title : Russian DD 5.1
Language : Russian
Service kind : Complete Main
Default : Inherited From: 2
Alternate group : 1
Encoded date : UTC 2017-08-27 10:11:39
Tagged date : UTC 2017-08-27 10:11:48
Fallback To : 2

Audio #4
ID : 5
Format : AC-3
Format/Info : Audio Coding 3
Format settings, Endianness : Big
Codec ID : ac-3
Duration : 2h 7mn
Bit rate mode : Constant
Bit rate : 640 Kbps
Channel(s) : 6 channels
Channel positions : Front: L C R, Side: L R, LFE
Sampling rate : 48.0 KHz
Frame rate : 31.250 fps (1536 SPF)
Bit depth : 16 bits
Compression mode : Lossy
Stream size : 584 MiB (7%)
Title : Spanish DD 5.1
Language : Spanish
Service kind : Complete Main
Default : No
Alternate group : 1
Encoded date : UTC 2017-08-27 10:11:39
Tagged date : UTC 2017-08-27 10:11:48
Fallback To : 3

Menu #1
00:00:00.000 : Chapter 1
00:04:50.457 : Chapter 2
00:06:32.517 : Chapter 3
00:14:36.250 : Chapter 4
00:18:54.342 : Chapter 5
00:24:47.027 : Chapter 6
00:32:19.020 : Chapter 7
00:35:04.060 : Chapter 8
00:45:16.756 : Chapter 9
00:53:35.921 : Chapter 10
01:02:52.310 : Chapter 11
01:24:00.077 : Chapter 12
01:29:09.886 : Chapter 13
01:41:30.918 : Chapter 14
01:51:25.262 : Chapter 15
02:00:01.945 : Chapter 16
02:04:16.574 : Chapter 17

Menu #2
ID : 6
Codec ID : text
Duration : 2h 7mn
Language : Spanish
Encoded date : UTC 2017-08-27 10:12:03
Tagged date : UTC 2017-08-27 10:12:03
Menu For : 2,1
00:00:00.000 : Chapter 1
00:04:50.457 : Chapter 2
00:06:32.517 : Chapter 3
00:14:36.250 : Chapter 4
00:18:54.342 : Chapter 5
00:24:47.027 : Chapter 6
00:32:19.020 : Chapter 7
00:35:04.060 : Chapter 8
00:45:16.756 : Chapter 9
00:53:35.921 : Chapter 10
01:02:52.310 : Chapter 11
01:24:00.077 : Chapter 12
01:29:09.886 : Chapter 13
01:41:30.918 : Chapter 14
01:51:25.262 : Chapter 15
02:00:01.945 : Chapter 16
02:04:16.574 : Chapter 17
Bit rate mode : VBR
x264 [info]: frame I:1241 Avg QP:15.47 size:271474
x264 [info]: frame P:42577 Avg QP:18.70 size: 80132
x264 [info]: frame B:139743 Avg QP:20.07 size: 27939
x264 [info]: consecutive B-frames: 3.1% 3.8% 10.5% 15.5% 16.8% 44.8% 3.4% 0.5% 0.4% 0.5% 0.1% 0.1% 0.0% 0.1% 0.0% 0.0% 0.3%
x264 [info]: mb I I16..4: 11.7% 73.1% 15.2%
x264 [info]: mb P I16..4: 1.1% 11.4% 1.2% P16..4: 38.4% 20.1% 15.0% 0.7% 0.3% skip:11.9%
x264 [info]: mb B I16..4: 0.1% 1.5% 0.1% B16..8: 39.4% 9.4% 2.5% direct: 6.8% skip:40.1% L0:42.3% L1:41.5% BI:16.1%
x264 [info]: 8x8 transform intra:83.5% inter:60.6%
x264 [info]: direct mvs spatial:99.1% temporal:0.9%
x264 [info]: coded y,uvDC,uvAC intra: 89.8% 88.1% 75.8% inter: 29.0% 31.6% 16.5%
x264 [info]: i16 v,h,dc,p: 48% 14% 13% 25%
x264 [info]: i8 v,h,dc,ddl,ddr,vr,hd,vl,hu: 11% 9% 11% 9% 13% 12% 12% 12% 12%
x264 [info]: i4 v,h,dc,ddl,ddr,vr,hd,vl,hu: 11% 9% 4% 9% 15% 15% 14% 12% 12%
x264 [info]: i8c dc,h,v,p: 54% 15% 16% 15%
x264 [info]: Weighted P-Frames: Y:1.6% UV:0.7%
x264 [info]: ref P L0: 51.7% 13.3% 25.8% 8.8% 0.3% 0.0%
x264 [info]: ref B L0: 85.2% 12.3% 2.5%
x264 [info]: ref B L1: 94.6% 5.4%
x264 [info]: kb/s:7996.68
Apple TV, iPad, iPhone, iPod Touch.
Windows VLC media player

 ·  , , FAQ-
:  [ 27--2017 15:12 ]

  

.torrent

.torrent 84 KB


: 8.39 GB
(hash) : 1667337b33b6934a77dad0d1085b327ae1239470
··
...

[ATV3] La reina de España . !

!