Скачать через торрент музыку бесплатно без регистрации torrent

Если у вас наблюдаются проблемы со скриншотами, переходом по ссылками, скачиванием торрентов - проблемы в блокировщике рекламы AdBlock. #хорошегоДня!


Статистика раздачи
Размер:  5.06 GB   |    Зарегистрирован:  23 дня   |    .torrent скачан:  2 раза   |   
Раздают:  1  
   
Загрузка...
 
Автор Сообщение

Galfimbul

avatar Galfimbul


Нэшвилл / The Music Of Nashville Original SoundtrackЖанр: Soundtrack (Country)
Носитель: CD
Год выпуска диска: 2012-2017
Страна-производитель диска: CA, EU, DE
Издатель (лейбл): Big Machine Records
Аудиокодек: FLAC (*.flac)
Тип рипа: image+.cue
Битрейт аудио: lossless
Продолжительность: 09:25:21
Источник (релизер): автор раздачи
Наличие сканов в содержимом раздачи: да (1200dpi)
[spoiler="2012 - The Music Of Nashville Season 1 (Volume 1) [BMRNV0100B]"]
1 - Connie Britton - Buried Under
2 - Clare Bowen, Sam Palladio - If I Didn't Know Better
3 - Charles Esten, Hayden Panettiere - Undermine
4 - Charles Esten - Sideshow
5 - Connie Britton, Hayden Panettiere - Wrong Song
6 - Charles Esten, Connie Britton - No One Will Ever Love You
7 - Jonathan Jackson - Twist Of Barbwire
8 - Hayden Panettiere - Love Like Mine
9 - Lennon Stella, Maisy Stella - Telescope
10 - Clare Bowen, Sam Palladio - When The Right One Comes Along
11 - Hayden Panettiere - Telescope (Radio Mix)
12 - Sam Palladio - I'll Be There
13 - Clare Bowen - Love's Ring Of Fire
14 - Charles Esten, Hayden Panettiere - Undermine (Acoustic Version)
15 - Connie Britton - Changing Ground
<div class="sp-wrap">
<div class="sp-head folded">Лог создания рипа</div>
<div class="sp-body">

Exact Audio Copy V1.0 beta 3 from 29. August 2011

EAC extraction logfile from 28. August 2014, 17:07

Various / The Music Of Nashville Season 1 (Volume 1)

Used drive : SlimtypeDVD A DU8A5SH Adapter: 2 ID: 0

Read mode : SecureUtilize accurate stream : YesDefeat audio cache : YesMake use of C2 pointers : No

Read offset correction : 6Overread into Lead-In and Lead-Out : NoFill up missing offset samples with silence : YesDelete leading and trailing silent blocks : NoNull samples used in CRC calculations : YesUsed interface : Native Win32 interface for Win NT & 2000

Used output format : User Defined EncoderSelected bitrate : 896 kBit/sQuality : HighAdd ID3 tag : NoCommand line compressor : C:\Program Files (x86)\Exact Audio Copy\Flac\flac.exeAdditional command line options : -V -8 -T "Date=%year%" -T "Genre=%genre%" %source%

TOC of the extracted CD

Track | Start | Length | Start sector | End sector --------------------------------------------------------- 1 | 0:00.00 | 3:05.16 | 0 | 13890 2 | 3:05.16 | 2:59.44 | 13891 | 27359 3 | 6:04.60 | 4:01.08 | 27360 | 45442 4 | 10:05.68 | 3:05.59 | 45443 | 59376 5 | 13:11.52 | 3:11.68 | 59377 | 73769 6 | 16:23.45 | 3:44.08 | 73770 | 90577 7 | 20:07.53 | 3:06.44 | 90578 | 104571 8 | 23:14.22 | 3:26.51 | 104572 | 120072 9 | 26:40.73 | 2:29.11 | 120073 | 131258 10 | 29:10.09 | 3:49.69 | 131259 | 148502 11 | 33:00.03 | 3:17.66 | 148503 | 163343 12 | 36:17.69 | 2:48.21 | 163344 | 175964 13 | 39:06.15 | 1:58.68 | 175965 | 184882 14 | 41:05.08 | 1:52.36 | 184883 | 193318 15 | 42:57.44 | 2:26.38 | 193319 | 204306

Range status and errors

Selected range

Filename Z:\mnt\nas\PIZDA\Various - The Music Of Nashville Season 1 (Volume 1).wav

Peak level 100.0 % Extraction speed 4.2 X Range quality 100.0 % Test CRC FBBCD43A Copy CRC FBBCD43A Copy OK

No errors occurred

AccurateRip summary

Track 1 accurately ripped (confidence 7) [3F200FE2] (AR v2)Track 2 accurately ripped (confidence 7) [950EA749] (AR v2)Track 3 accurately ripped (confidence 7) [A93C9F9B] (AR v2)Track 4 accurately ripped (confidence 7) [4393AACF] (AR v2)Track 5 accurately ripped (confidence 7) [D8804236] (AR v2)Track 6 accurately ripped (confidence 7) [2850351F] (AR v2)Track 7 accurately ripped (confidence 7) [5EF67B46] (AR v2)Track 8 accurately ripped (confidence 7) [4C3203BD] (AR v2)Track 9 accurately ripped (confidence 7) [46B9EA23] (AR v2)Track 10 accurately ripped (confidence 7) [8718FC81] (AR v2)Track 11 accurately ripped (confidence 7) [15E4DF17] (AR v2)Track 12 accurately ripped (confidence 7) [C5499898] (AR v2)Track 13 accurately ripped (confidence 7) [63232AF0] (AR v2)Track 14 accurately ripped (confidence 7) [10CEE4BC] (AR v2)Track 15 accurately ripped (confidence 7) [7B59535D] (AR v2)

All tracks accurately ripped

End of status report
[/spoiler]
REM GENRE CountryREM DATE 2012REM DISCID F00AA40FREM COMMENT "ExactAudioCopy v1.0b3"PERFORMER "Various"TITLE "The Music Of Nashville Season 1 (Volume 1)"FILE "Various - The Music Of Nashville Season 1 (Volume 1).flac" WAVE TRACK 01 AUDIO TITLE "Buried Under" PERFORMER "Connie Britton" INDEX 01 00:00:00 TRACK 02 AUDIO TITLE "If I Didn't Know Better" PERFORMER "Sam Palladio, Clare Bowen" INDEX 01 03:05:16 TRACK 03 AUDIO TITLE "Undermine" PERFORMER "Hayden Panettiere, Charles Esten" INDEX 01 06:04:60 TRACK 04 AUDIO TITLE "Sideshow" PERFORMER "Charles Esten" INDEX 01 10:05:68 TRACK 05 AUDIO TITLE "Wrong Song" PERFORMER "Connie Britton, Hayden Panettiere" INDEX 01 13:11:52 TRACK 06 AUDIO TITLE "No One Will Ever Love You" PERFORMER "Connie Britton, Charles Esten" INDEX 01 16:23:45 TRACK 07 AUDIO TITLE "Twist Of Barbwire" PERFORMER "Jonathan Jackson" INDEX 01 20:07:53 TRACK 08 AUDIO TITLE "Love Like Mine" PERFORMER "Hayden Panettiere" INDEX 01 23:14:22 TRACK 09 AUDIO TITLE "Telescope" PERFORMER "Lennon Stella, Maisy Stella" INDEX 01 26:40:73 TRACK 10 AUDIO TITLE "When The Right One Comes Along" PERFORMER "Clare Bowen, Sam Palladio" INDEX 01 29:10:09 TRACK 11 AUDIO TITLE "Telescope (Radio Mix)" PERFORMER "Hayden Panettiere" INDEX 01 33:00:03 TRACK 12 AUDIO TITLE "I'll Be There" PERFORMER "Sam Palladio" INDEX 01 36:17:69 TRACK 13 AUDIO TITLE "Love's Ring Of Fire" PERFORMER "Clare Bowen" INDEX 01 39:06:15 TRACK 14 AUDIO TITLE "Undermine (Acoustic Version)" PERFORMER "Hayden Panettiere, Charles Esten" INDEX 01 41:05:08 TRACK 15 AUDIO TITLE "Changing Ground" PERFORMER "Connie Britton" INDEX 01 42:57:44
</div>
</div>
[spoiler="2013 - The Music Of Nashville Season 1 (Volume 2) [BMRNV015B]"]
1 - Sam Palladio, Clare Bowen - Fade Into You
2 - Lennon Stella, Maisy Stella - Ho Hey
3 - Sam Palladio - Gun For A Mouth
4 - Hayden Panettiere - We Are Water
5 - Clare Bowen - Looking For A Place To Shine
6 - Connie Britton - Stronger Than Me
7 - Connie Britton - Bitter Memory
8 - Jonathan Jackson - Let There Be Lonely
9 - Hayden Panettiere - Hypnotizing
10 - Clare Bowen, Sam Palladio - I Will Fall (Studio Version)
11 - Hayden Panettiere - Nothing In This World Will Ever Break My Heart Again
12 - Hayden Panettiere - Consider Me
13 - Jonathan Jackson - Keep Asking Why (Studio Version)
14 - Clare Bowen, Chris Carmack - You Ain't Dolly
15 - Charles Esten - Matchbox Blues
16 - Sam Palladio - Shine
<div class="sp-wrap">
<div class="sp-head folded">Лог создания рипа</div>
<div class="sp-body">

Exact Audio Copy V1.0 beta 3 from 29. August 2011

EAC extraction logfile from 28. August 2014, 18:11

Various / The Music Of Nashville Season 1 (Volume 2)

Used drive : SlimtypeDVD A DU8A5SH Adapter: 2 ID: 0

Read mode : SecureUtilize accurate stream : YesDefeat audio cache : YesMake use of C2 pointers : No

Read offset correction : 6Overread into Lead-In and Lead-Out : NoFill up missing offset samples with silence : YesDelete leading and trailing silent blocks : NoNull samples used in CRC calculations : YesUsed interface : Native Win32 interface for Win NT & 2000

Used output format : User Defined EncoderSelected bitrate : 896 kBit/sQuality : HighAdd ID3 tag : NoCommand line compressor : C:\Program Files (x86)\Exact Audio Copy\Flac\flac.exeAdditional command line options : -V -8 -T "Date=%year%" -T "Genre=%genre%" %source%

TOC of the extracted CD

Track | Start | Length | Start sector | End sector --------------------------------------------------------- 1 | 0:00.00 | 3:31.71 | 0 | 15895 2 | 3:31.71 | 2:07.41 | 15896 | 25461 3 | 5:39.37 | 3:21.70 | 25462 | 40606 4 | 9:01.32 | 4:33.71 | 40607 | 61152 5 | 13:35.28 | 2:06.30 | 61153 | 70632 6 | 15:41.58 | 3:53.53 | 70633 | 88160 7 | 19:35.36 | 3:27.38 | 88161 | 103723 8 | 23:02.74 | 3:01.58 | 103724 | 117356 9 | 26:04.57 | 3:13.58 | 117357 | 131889 10 | 29:18.40 | 3:26.25 | 131890 | 147364 11 | 32:44.65 | 5:00.18 | 147365 | 169882 12 | 37:45.08 | 3:37.56 | 169883 | 186213 13 | 41:22.64 | 4:17.69 | 186214 | 205557 14 | 45:40.58 | 4:06.08 | 205558 | 224015 15 | 49:46.66 | 2:05.72 | 224016 | 233462 16 | 51:52.63 | 3:51.09 | 233463 | 250796

Range status and errors

Selected range

Filename Z:\mnt\nas\PIZDA\Various - The Music Of Nashville Season 1 (Volume 2).wav

Peak level 98.8 % Extraction speed 1.9 X Range quality 100.0 % Test CRC E58F1B15 Copy CRC E58F1B15 Copy OK

No errors occurred

AccurateRip summary

Track 1 accurately ripped (confidence 4) [70415977] (AR v2)Track 2 accurately ripped (confidence 4) [3EC2F564] (AR v2)Track 3 accurately ripped (confidence 4) [A2CC0FEE] (AR v2)Track 4 accurately ripped (confidence 4) [A5BFE57E] (AR v2)Track 5 accurately ripped (confidence 4) [C9B9EE8A] (AR v2)Track 6 accurately ripped (confidence 4) [CBD72C00] (AR v2)Track 7 accurately ripped (confidence 4) [4948366F] (AR v2)Track 8 accurately ripped (confidence 4) [65A88C09] (AR v2)Track 9 accurately ripped (confidence 4) [112A9C58] (AR v2)Track 10 accurately ripped (confidence 4) [FA8A7982] (AR v2)Track 11 accurately ripped (confidence 4) [CDEAEAFF] (AR v2)Track 12 accurately ripped (confidence 4) [9B019D7C] (AR v2)Track 13 accurately ripped (confidence 4) [241AB7FF] (AR v2)Track 14 accurately ripped (confidence 4) [E8954CA0] (AR v2)Track 15 accurately ripped (confidence 4) [D7D9288A] (AR v2)Track 16 accurately ripped (confidence 4) [87DD21E4] (AR v2)

All tracks accurately ripped

End of status report
[/spoiler]
REM GENRE CountryREM DATE 2013REM DISCID E80D0F10REM COMMENT "ExactAudioCopy v1.0b3"PERFORMER "Various"TITLE "The Music Of Nashville Season 1 (Volume 2)"FILE "Various - The Music Of Nashville Season 1 (Volume 2).flac" WAVE TRACK 01 AUDIO TITLE "Fade Into You" PERFORMER "Sam Palladio, Clare Bowen" INDEX 01 00:00:00 TRACK 02 AUDIO TITLE "Ho Hey" PERFORMER "Lennon Stella, Maisy Stella" INDEX 00 03:29:17 INDEX 01 03:31:71 TRACK 03 AUDIO TITLE "Gun For A Mouth" PERFORMER "Sam Palladio" INDEX 00 05:38:29 INDEX 01 05:39:37 TRACK 04 AUDIO TITLE "We Are Water" PERFORMER "Hayden Panettiere" INDEX 00 08:59:49 INDEX 01 09:01:32 TRACK 05 AUDIO TITLE "Looking For A Place To Shine" PERFORMER "Clare Bowen" INDEX 00 13:33:71 INDEX 01 13:35:28 TRACK 06 AUDIO TITLE "Stronger Than Me" PERFORMER "Connie Britton" INDEX 00 15:39:15 INDEX 01 15:41:58 TRACK 07 AUDIO TITLE "Bitter Memory" PERFORMER "Connie Britton" INDEX 00 19:32:54 INDEX 01 19:35:36 TRACK 08 AUDIO TITLE "Let There Be Lonely" PERFORMER "Jonathan Jackson" INDEX 00 23:00:26 INDEX 01 23:02:74 TRACK 09 AUDIO TITLE "Hypnotizing" PERFORMER "Hayden Panettiere" INDEX 00 26:02:34 INDEX 01 26:04:57 TRACK 10 AUDIO TITLE "I Will Fall (Studio Version)" PERFORMER "Clare Bowen, Sam Palladio" INDEX 00 29:16:02 INDEX 01 29:18:40 TRACK 11 AUDIO TITLE "Nothing In This World Will Ever Break My Heart Again" PERFORMER "Hayden Panettiere" INDEX 00 32:42:28 INDEX 01 32:44:65 TRACK 12 AUDIO TITLE "Consider Me" PERFORMER "Hayden Panettiere" INDEX 00 37:44:72 INDEX 01 37:45:08 TRACK 13 AUDIO TITLE "Keep Asking Why (Studio Version)" PERFORMER "Jonathan Jackson" INDEX 00 41:20:65 INDEX 01 41:22:64 TRACK 14 AUDIO TITLE "You Ain't Dolly" PERFORMER "Clare Bowen, Chris Carmack" INDEX 00 45:38:21 INDEX 01 45:40:58 TRACK 15 AUDIO TITLE "Matchbox Blues" PERFORMER "Charles Esten" INDEX 00 49:45:15 INDEX 01 49:46:66 TRACK 16 AUDIO TITLE "Shine" PERFORMER "Sam Palladio" INDEX 00 51:51:49 INDEX 01 51:52:63
</div>
</div>
[spoiler="2013 - The Music Of Nashville Season 2 (Volume 1) [0602537673902]"]
1 - Chris Carmack - What If I Was Willing
2 - Sam Palladio - Can't Get It Right
3 - Lennon*, Maisy - A Life That's Good
4 - Connie Britton, Will Chase - Ball And Chain
5 - Clare Bowen, Charles Esten - This Town
6 - Hayden Panettiere - Trouble Is
7 - Charles Esten - Playin' Tricks
8 - Clare Bowen, Sam Palladio - Why Can't I Say Goodnight
9 - Aubrey Peeples - Tell Me
10 - Chaley Rose - Wayfaring Stranger (A Cappella)
11 - Lennon*, Maisy - Share With You
12 - Jonathan Jackson - How You Learn To Live Alone
13 - Hayden Panettiere, Chris Carmack - Can't Say No To You
14 - Clare Bowen - Waitin'
15 - Jonathan Jackson, Sam Palladio - Be My Girl
16 - Clare Bowen, Chaley Rose - Come See About Me
17 - Charles Esten - A Life That's Good
<div class="sp-wrap">
<div class="sp-head folded">Лог создания рипа</div>
<div class="sp-body">

Exact Audio Copy V1.0 beta 3 from 29. August 2011

EAC extraction logfile from 29. August 2014, 16:53

Various / The Music Of Nashville Season 2 (Volume 1)

Used drive : SlimtypeDVD A DU8A5SH Adapter: 2 ID: 0

Read mode : SecureUtilize accurate stream : YesDefeat audio cache : YesMake use of C2 pointers : No

Read offset correction : 6Overread into Lead-In and Lead-Out : NoFill up missing offset samples with silence : YesDelete leading and trailing silent blocks : NoNull samples used in CRC calculations : YesUsed interface : Native Win32 interface for Win NT & 2000

Used output format : User Defined EncoderSelected bitrate : 896 kBit/sQuality : HighAdd ID3 tag : NoCommand line compressor : C:\Program Files (x86)\Exact Audio Copy\Flac\flac.exeAdditional command line options : -V -8 -T "Date=%year%" -T "Genre=%genre%" %source%

TOC of the extracted CD

Track | Start | Length | Start sector | End sector --------------------------------------------------------- 1 | 0:00.00 | 3:39.09 | 0 | 16433 2 | 3:39.09 | 3:13.29 | 16434 | 30937 3 | 6:52.38 | 3:22.50 | 30938 | 46137 4 | 10:15.13 | 3:21.65 | 46138 | 61277 5 | 13:37.03 | 3:51.39 | 61278 | 78641 6 | 17:28.42 | 2:34.70 | 78642 | 90261 7 | 20:03.37 | 3:23.16 | 90262 | 105502 8 | 23:26.53 | 3:02.40 | 105503 | 119192 9 | 26:29.18 | 3:23.63 | 119193 | 134480 10 | 29:53.06 | 2:05.59 | 134481 | 143914 11 | 31:58.65 | 2:00.06 | 143915 | 152920 12 | 33:58.71 | 4:28.40 | 152921 | 173060 13 | 38:27.36 | 3:42.06 | 173061 | 189716 14 | 42:09.42 | 2:47.60 | 189717 | 202301 15 | 44:57.27 | 2:38.09 | 202302 | 214160 16 | 47:35.36 | 2:58.40 | 214161 | 227550 17 | 50:34.01 | 3:47.59 | 227551 | 244634

Range status and errors

Selected range

Filename Z:\mnt\nas\PIZDA\Various - The Music Of Nashville Season 2 (Volume 1).wav

Peak level 94.4 % Extraction speed 1.9 X Range quality 100.0 % Test CRC CD62549B Copy CRC CD62549B Copy OK

No errors occurred

AccurateRip summary

Track 1 accurately ripped (confidence 2) [2ED015A1] (AR v2)Track 2 accurately ripped (confidence 2) [852D0271] (AR v2)Track 3 accurately ripped (confidence 2) [3EFC6CB6] (AR v2)Track 4 accurately ripped (confidence 2) [4B798057] (AR v2)Track 5 accurately ripped (confidence 2) [AF35D392] (AR v2)Track 6 accurately ripped (confidence 2) [6EA1961C] (AR v2)Track 7 accurately ripped (confidence 2) [1834A6FB] (AR v2)Track 8 accurately ripped (confidence 2) [A9E89B35] (AR v2)Track 9 accurately ripped (confidence 2) [928DC826] (AR v2)Track 10 accurately ripped (confidence 2) [79E4B585] (AR v2)Track 11 accurately ripped (confidence 2) [B3193708] (AR v2)Track 12 accurately ripped (confidence 2) [728D41D9] (AR v2)Track 13 accurately ripped (confidence 2) [FFD5B98B] (AR v2)Track 14 accurately ripped (confidence 2) [E184AA66] (AR v2)Track 15 accurately ripped (confidence 2) [E0AAB771] (AR v2)Track 16 accurately ripped (confidence 2) [57B3F3B4] (AR v2)Track 17 accurately ripped (confidence 2) [8FCCBEA9] (AR v2)

All tracks accurately ripped

End of status report
[/spoiler]
REM GENRE CountryREM DATE 2013REM DISCID D80CBD11REM COMMENT "ExactAudioCopy v1.0b3"PERFORMER "Various"TITLE "The Music Of Nashville Season 2 (Volume 1)"FILE "Various - The Music Of Nashville Season 2 (Volume 1).flac" WAVE TRACK 01 AUDIO TITLE "What If I Was Willing" PERFORMER "Chris Carmack" INDEX 01 00:00:00 TRACK 02 AUDIO TITLE "Can't Get It Right" PERFORMER "Sam Palladio" INDEX 00 03:37:29 INDEX 01 03:39:09 TRACK 03 AUDIO TITLE "A Life That's Good" PERFORMER "Lennon & Maisy" INDEX 00 06:51:36 INDEX 01 06:52:38 TRACK 04 AUDIO TITLE "Ball And Chain" PERFORMER "Connie Britton, Will Chase" INDEX 00 10:13:60 INDEX 01 10:15:13 TRACK 05 AUDIO TITLE "This Town" PERFORMER "Clare Bowen, Charles Esten" INDEX 00 13:35:50 INDEX 01 13:37:03 TRACK 06 AUDIO TITLE "Trouble Is" PERFORMER "Hayden Panettiere" INDEX 00 17:27:63 INDEX 01 17:28:42 TRACK 07 AUDIO TITLE "Playin' Tricks" PERFORMER "Charles Esten" INDEX 00 20:01:65 INDEX 01 20:03:37 TRACK 08 AUDIO TITLE "Why Can't I Say Goodnight" PERFORMER "Clare Bowen, Sam Palladio" INDEX 00 23:25:30 INDEX 01 23:26:53 TRACK 09 AUDIO TITLE "Tell Me" PERFORMER "Aubrey Peeples" INDEX 00 26:29:02 INDEX 01 26:29:18 TRACK 10 AUDIO TITLE "Wayfaring Stranger (A Cappella)" PERFORMER "Chaley Rose" INDEX 00 29:52:35 INDEX 01 29:53:06 TRACK 11 AUDIO TITLE "Share With You" PERFORMER "Lennon & Maisy" INDEX 00 31:57:65 INDEX 01 31:58:65 TRACK 12 AUDIO TITLE "How You Learn To Live Alone" PERFORMER "Jonathan Jackson" INDEX 01 33:58:71 TRACK 13 AUDIO TITLE "Can't Say No To You" PERFORMER "Hayden Panettiere, Chris Carmack" INDEX 00 38:26:30 INDEX 01 38:27:36 TRACK 14 AUDIO TITLE "Waitin'" PERFORMER "Clare Bowen" INDEX 00 42:08:14 INDEX 01 42:09:42 TRACK 15 AUDIO TITLE "Be My Girl" PERFORMER "Sam Palladio, Jonathan Jackson" INDEX 00 44:56:38 INDEX 01 44:57:27 TRACK 16 AUDIO TITLE "Come See About Me" PERFORMER "Clare Bowen, Chaley Rose" INDEX 01 47:35:36 TRACK 17 AUDIO TITLE "A Life That's Good" PERFORMER "Charles Esten" INDEX 00 50:33:20 INDEX 01 50:34:01
</div>
</div>
[spoiler="2014 - The Music Of Nashville Season 2 (Volume 2) [0602537860852]"]
1 - Connie Britton, Hayden Panettiere - He Ain’t Gonna Change
2 - Sam Palladio, Charley Rose, Jonathan Jackson - I Ain’t Leavin’ Without Your Love
3 - Charles Esten, Lennon & Maisy - Believing
4 - Chris Carmack - Hurtin' On Me
5 - Sam Palladio, Clare Bowen - Lately
6 - Connie Britton - Wrong For The Right Reasons
7 - Hayden Panettiere, Jonathan Jackson - Everything I'll Ever Need
8 - Lennon & Maisy - Joy Parade
9 - Clare Bowen - Come Find Me
10 - Will Chase, Chris Carmack, Charles Esten - It's On Tonight
11 - Sam Palladio, Jonathan Jackson, Chaley Rose - Hennessee
12 - Aubrey Peeples - It All Slows Down
13 - Chris Carmack - Is That Who I Am
14 - Connie Britton - This Time
15 - Clare Bowen - Black Roses
16 - Hayden Panettiere - Don't Put Dirt On My Grave Just Yet
17 - Charles Esten, Connie Britton, Lennon & Maisy - A Life That's Good
18 - Chaley Rose - Carry You Home
19 - Chris Carmack - Then I Was Loved By You (Full Band Version)
20 - Clare Bowen - Fallig
21 - Hayden Panettiere - Don’t Put Dirt On My Grave Just Yet (Orchestral Version)
<div class="sp-wrap">
<div class="sp-head folded">Лог создания рипа</div>
<div class="sp-body">

Exact Audio Copy V1.0 beta 3 from 29. August 2011

EAC extraction logfile from 29. August 2014, 17:30

Various / The Music Of Nashville Season 2 (Volume 2)

Used drive : SlimtypeDVD A DU8A5SH Adapter: 2 ID: 0

Read mode : SecureUtilize accurate stream : YesDefeat audio cache : YesMake use of C2 pointers : No

Read offset correction : 6Overread into Lead-In and Lead-Out : NoFill up missing offset samples with silence : YesDelete leading and trailing silent blocks : NoNull samples used in CRC calculations : YesUsed interface : Native Win32 interface for Win NT & 2000

Used output format : User Defined EncoderSelected bitrate : 896 kBit/sQuality : HighAdd ID3 tag : NoCommand line compressor : C:\Program Files (x86)\Exact Audio Copy\Flac\flac.exeAdditional command line options : -V -8 -T "Date=%year%" -T "Genre=%genre%" %source%

TOC of the extracted CD

Track | Start | Length | Start sector | End sector --------------------------------------------------------- 1 | 0:00.00 | 3:34.29 | 0 | 16078 2 | 3:34.29 | 2:45.65 | 16079 | 28518 3 | 6:20.19 | 3:16.18 | 28519 | 43236 4 | 9:36.37 | 3:29.07 | 43237 | 58918 5 | 13:05.44 | 3:45.41 | 58919 | 75834 6 | 16:51.10 | 3:19.36 | 75835 | 90795 7 | 20:10.46 | 2:18.59 | 90796 | 101204 8 | 22:29.30 | 3:10.45 | 101205 | 115499 9 | 25:40.00 | 4:34.48 | 115500 | 136097 10 | 30:14.48 | 3:42.57 | 136098 | 152804 11 | 33:57.30 | 3:27.23 | 152805 | 168352 12 | 37:24.53 | 3:09.11 | 168353 | 182538 13 | 40:33.64 | 4:26.66 | 182539 | 202554 14 | 45:00.55 | 2:53.01 | 202555 | 215530 15 | 47:53.56 | 3:43.45 | 215531 | 232300 16 | 51:37.26 | 3:11.12 | 232301 | 246637 17 | 54:48.38 | 3:31.02 | 246638 | 262464 18 | 58:19.40 | 3:59.49 | 262465 | 280438 19 | 62:19.14 | 4:19.38 | 280439 | 299901 20 | 66:38.52 | 3:23.18 | 299902 | 315144 21 | 70:01.70 | 3:11.53 | 315145 | 329522

Range status and errors

Selected range

Filename Z:\mnt\nas\PIZDA\Various - The Music Of Nashville Season 2 (Volume 2).wav

Peak level 94.4 % Extraction speed 5.0 X Range quality 100.0 % Test CRC 4E9F7283 Copy CRC 4E9F7283 Copy OK

No errors occurred

AccurateRip summary

Track 1 accurately ripped (confidence 3) [BF9D1B3A] (AR v2)Track 2 accurately ripped (confidence 3) [3A7E7B4C] (AR v2)Track 3 accurately ripped (confidence 3) [ACAD82EE] (AR v2)Track 4 accurately ripped (confidence 3) [2C3A8468] (AR v2)Track 5 accurately ripped (confidence 3) [23E3276F] (AR v2)Track 6 accurately ripped (confidence 3) [93C55B18] (AR v2)Track 7 accurately ripped (confidence 3) [617C943F] (AR v2)Track 8 accurately ripped (confidence 3) [EB3E9290] (AR v2)Track 9 accurately ripped (confidence 3) [151745DF] (AR v2)Track 10 accurately ripped (confidence 3) [D6ECA12F] (AR v2)Track 11 accurately ripped (confidence 3) [CFE2EF1A] (AR v2)Track 12 accurately ripped (confidence 3) [5D396335] (AR v2)Track 13 accurately ripped (confidence 3) [1A511222] (AR v2)Track 14 accurately ripped (confidence 3) [8C1A841A] (AR v2)Track 15 accurately ripped (confidence 3) [0F4A8B86] (AR v2)Track 16 accurately ripped (confidence 3) [40F463A3] (AR v2)Track 17 accurately ripped (confidence 3) [D347CF77] (AR v2)Track 18 accurately ripped (confidence 3) [AA2E4613] (AR v2)Track 19 accurately ripped (confidence 3) [3E091BA6] (AR v2)Track 20 accurately ripped (confidence 3) [3BCFB831] (AR v2)Track 21 accurately ripped (confidence 3) [3C43DE2D] (AR v2)

All tracks accurately ripped

End of status report
[/spoiler]
REM GENRE CountryREM DATE 2014REM DISCID 07112915REM COMMENT "ExactAudioCopy v1.0b3"PERFORMER "Various"TITLE "The Music Of Nashville Season 2 (Volume 2)"FILE "Various - The Music Of Nashville Season 2 (Volume 2).flac" WAVE TRACK 01 AUDIO TITLE "He Ain't Gonna Change" PERFORMER "Connie Britton, Hayden Panettiere" INDEX 01 00:00:00 TRACK 02 AUDIO TITLE "I Ain't Leavin' Without Your Love" PERFORMER "Sam Palladio, Chaley Rose, Jonathan Jackson" INDEX 00 03:33:69 INDEX 01 03:34:29 TRACK 03 AUDIO TITLE "Believing" PERFORMER "Charles Esten, Lennon & Maisy" INDEX 00 06:19:09 INDEX 01 06:20:19 TRACK 04 AUDIO TITLE "Hurtin' On Me" PERFORMER "Chris Carmack" INDEX 00 09:36:01 INDEX 01 09:36:37 TRACK 05 AUDIO TITLE "Lately" PERFORMER "Sam Palladio, Clare Bowen" INDEX 00 13:03:72 INDEX 01 13:05:44 TRACK 06 AUDIO TITLE "Wrong For The Right Reasons" PERFORMER "Connie Britton" INDEX 00 16:50:21 INDEX 01 16:51:10 TRACK 07 AUDIO TITLE "Everything I'll Ever Need" PERFORMER "Hayden Panettiere, Jonathan Jackson" INDEX 00 20:09:55 INDEX 01 20:10:46 TRACK 08 AUDIO TITLE "Joy Parade" PERFORMER "Lennon & Maisy" INDEX 00 22:29:10 INDEX 01 22:29:30 TRACK 09 AUDIO TITLE "Come Find Me" PERFORMER "Clare Bowen" INDEX 00 25:39:14 INDEX 01 25:40:00 TRACK 10 AUDIO TITLE "It's On Tonight" PERFORMER "Will Chase, Chris Carmack, Charles Esten" INDEX 00 30:14:03 INDEX 01 30:14:48 TRACK 11 AUDIO TITLE "Hennessee" PERFORMER "Sam Palladio, Jonathan Jackson, Chaley Rose" INDEX 00 33:56:73 INDEX 01 33:57:30 TRACK 12 AUDIO TITLE "It All Slows Down" PERFORMER "Aubrey Peeples" INDEX 00 37:24:25 INDEX 01 37:24:53 TRACK 13 AUDIO TITLE "Is That Who I Am" PERFORMER "Chris Carmack" INDEX 00 40:32:32 INDEX 01 40:33:64 TRACK 14 AUDIO TITLE "This Time" PERFORMER "Connie Britton" INDEX 00 44:59:69 INDEX 01 45:00:55 TRACK 15 AUDIO TITLE "Black Roses" PERFORMER "Clare Bowen" INDEX 00 47:52:12 INDEX 01 47:53:56 TRACK 16 AUDIO TITLE "Don't Put Dirt On My Grave Just Yet" PERFORMER "Hayden Panettiere" INDEX 00 51:35:56 INDEX 01 51:37:26 TRACK 17 AUDIO TITLE "A Life That's Good" PERFORMER "Connie Britton, Charles Esten, Lennon & Maisy" INDEX 00 54:46:68 INDEX 01 54:48:38 TRACK 18 AUDIO TITLE "Carry You Home" PERFORMER "Chaley Rose" INDEX 00 58:17:58 INDEX 01 58:19:40 TRACK 19 AUDIO TITLE "Then I Was Loved By You" PERFORMER "Chris Carmack" INDEX 00 62:18:09 INDEX 01 62:19:14 TRACK 20 AUDIO TITLE "Falling" PERFORMER "Clare Bowen" INDEX 00 66:37:39 INDEX 01 66:38:52 TRACK 21 AUDIO TITLE "Don't Put Dirt On My Grave Just Yet (Orchestral Version)" PERFORMER "Hayden Panettiere" INDEX 00 70:00:12 INDEX 01 70:01:70
</div>
</div>
[spoiler="2014 - Christmas With Nashville [BMRNV0278A]"]
1 - Clare Bowen Santa Baby
2 - Charles Esten Feat. Vince Gill - Blue Christmas
3 - Jonathan Jackson - Christmas (Baby Please Come Home)
4 - Hayden Panettiere - White Christmas
5 - Connie Britton - You're A Mean One, Mr. Grinch
6 - Sam Palladio - River
7 - Connie Britton, Will Chase - Baby, It's Cold Outside
8 - Aubrey Peeples - Merry Christmas, Baby
9 - Chaley Rose - Have Yourself A Merry Little Christmas
10 - Lennon* & Maisy - Christmas Coming Home
11 - Will Chase - O Little Town Of Bethlehem
12 - Nashville Cast - Celebrate Me Home
<div class="sp-wrap">
<div class="sp-head folded">Лог создания рипа</div>
<div class="sp-body">

Exact Audio Copy V1.0 beta 4 from 7. December 2014

EAC extraction logfile from 18. July 2015, 22:02

Various / Christmas With Nashville

Used drive : SlimtypeDVD A DU8A5SH Adapter: 1 ID: 0

Read mode : SecureUtilize accurate stream : YesDefeat audio cache : YesMake use of C2 pointers : No

Read offset correction : 6Overread into Lead-In and Lead-Out : NoFill up missing offset samples with silence : YesDelete leading and trailing silent blocks : NoNull samples used in CRC calculations : YesUsed interface : Native Win32 interface for Win NT & 2000

Used output format : User Defined EncoderSelected bitrate : 1024 kBit/sQuality : HighAdd ID3 tag : NoCommand line compressor : C:\Program Files (x86)\Exact Audio Copy\Flac\flac.exeAdditional command line options : -V -8 -T "Date=%year%" -T "Genre=%genre%" %source%

TOC of the extracted CD

Track | Start | Length | Start sector | End sector --------------------------------------------------------- 1 | 0:00.00 | 3:28.47 | 0 | 15646 2 | 3:28.47 | 4:29.33 | 15647 | 35854 3 | 7:58.05 | 3:21.30 | 35855 | 50959 4 | 11:19.35 | 3:11.35 | 50960 | 65319 5 | 14:30.70 | 2:53.23 | 65320 | 78317 6 | 17:24.18 | 5:05.72 | 78318 | 101264 7 | 22:30.15 | 2:56.56 | 101265 | 114520 8 | 25:26.71 | 3:42.11 | 114521 | 131181 9 | 29:09.07 | 4:29.68 | 131182 | 151424 10 | 33:39.00 | 2:48.22 | 151425 | 164046 11 | 36:27.22 | 4:00.28 | 164047 | 182074 12 | 40:27.50 | 3:42.52 | 182075 | 198776

Range status and errors

Selected range

Filename Z:\mnt\nas\PIZDA\Various - Christmas With Nashville.wav

Peak level 100.0 % Extraction speed 1.8 X Range quality 99.9 % Test CRC 76275250 Copy CRC 76275250 Copy OK

No errors occurred

AccurateRip summary

Track 1 cannot be verified as accurate (confidence 3) [BA98E226], AccurateRip returned [C3A5528C] (AR v2)Track 2 cannot be verified as accurate (confidence 3) [50D67240], AccurateRip returned [2FC6546E] (AR v2)Track 3 cannot be verified as accurate (confidence 3) [8F70A78F], AccurateRip returned [0BC9A988] (AR v2)Track 4 cannot be verified as accurate (confidence 3) [C756109D], AccurateRip returned [25F98291] (AR v2)Track 5 cannot be verified as accurate (confidence 3) [0FF4638A], AccurateRip returned [37EDD849] (AR v2)Track 6 cannot be verified as accurate (confidence 3) [ADD892F0], AccurateRip returned [1F1527BD] (AR v2)Track 7 cannot be verified as accurate (confidence 3) [703AEE30], AccurateRip returned [DE74E39A] (AR v2)Track 8 cannot be verified as accurate (confidence 3) [06F46FA6], AccurateRip returned [AA86763A] (AR v2)Track 9 cannot be verified as accurate (confidence 3) [7FA61714], AccurateRip returned [2686BA64] (AR v2)Track 10 cannot be verified as accurate (confidence 3) [FA95C55C], AccurateRip returned [842F20DE] (AR v2)Track 11 cannot be verified as accurate (confidence 3) [7BDA0461], AccurateRip returned [8A3AAEAD] (AR v2)Track 12 cannot be verified as accurate (confidence 3) [F6FBDB36], AccurateRip returned [E5A8A4CA] (AR v2)

No tracks could be verified as accurateYou may have a different pressing from the one(s) in the database

End of status report
[/spoiler]
REM GENRE CountryREM DATE 2014REM DISCID 8F0A5A0CREM COMMENT "ExactAudioCopy v1.0b4"CATALOG 0843930013876PERFORMER "Various"TITLE "Christmas With Nashville"FILE "Various - Christmas With Nashville.flac" WAVE TRACK 01 AUDIO TITLE "Santa Baby" PERFORMER "Clare Bowen" ISRC USCJY1426001 INDEX 01 00:00:00 TRACK 02 AUDIO TITLE "Blue Christmas" PERFORMER "Charles Esten feat. Vince Gill" ISRC USCJY1426002 INDEX 01 03:28:47 TRACK 03 AUDIO TITLE "Christmas (Baby Please Come Home)" PERFORMER "Jonathan Jackson" ISRC USCJY1426003 INDEX 00 07:57:17 INDEX 01 07:58:05 TRACK 04 AUDIO TITLE "White Christmas" PERFORMER "Hayden Panettiere" ISRC USCJY1426004 INDEX 00 11:17:67 INDEX 01 11:19:35 TRACK 05 AUDIO TITLE "You're A Mean One, Mr. Grinch" PERFORMER "Connie Britton" ISRC USCJY1426005 INDEX 00 14:30:05 INDEX 01 14:30:70 TRACK 06 AUDIO TITLE "River" PERFORMER "Sam Palladio" ISRC USCJY1426006 INDEX 00 17:23:40 INDEX 01 17:24:18 TRACK 07 AUDIO TITLE "Baby It's Cold Outside" PERFORMER "Connie Britton, Will Chase" ISRC USJ681411530 INDEX 00 22:29:37 INDEX 01 22:30:15 TRACK 08 AUDIO TITLE "Merry Christmas Baby" PERFORMER "Aubrey Peeples" ISRC USCJY1426008 INDEX 00 25:25:40 INDEX 01 25:26:71 TRACK 09 AUDIO TITLE "Have Yourself A Merry Little Christmas" PERFORMER "Chaley Rose" ISRC USCJY1426009 INDEX 00 29:07:67 INDEX 01 29:09:07 TRACK 10 AUDIO TITLE "Christmas Coming Home" PERFORMER "Lennon & Maisy" ISRC USCJY1426010 INDEX 00 33:37:57 INDEX 01 33:39:00 TRACK 11 AUDIO TITLE "O Little Town Of Bethlehem" PERFORMER "Will Chase" ISRC USCJY1426011 INDEX 00 36:25:44 INDEX 01 36:27:22 TRACK 12 AUDIO TITLE "Celebrate Me Home" PERFORMER "Nashville Cast" ISRC USCJY1426012 INDEX 00 40:26:18 INDEX 01 40:27:50
</div>
</div>
[spoiler="2014 - The Music Of Nashville Season 3 (Volume 1) [BMRNV0300A]"]
1 - Chris Carmack - If It's Love
2 - Connie Britton - Lies Of The Lonely
3 - Hayden Panettiere - Disappear
4 - Clare Bowen, Mykelti Williamson - Carry On
5 - Connie Britton, Laura Benanti - Gasoline And Matches
6 - Charles Esten - I Know How To Love You Now
7 - Chris Carmack, Aubrey Peeples - If You Heart Can Handle It
8 - Jonathan Jackson, Sam Palladio, Chaley Rose - The Most Beautiful Girl In The World
9 - Will Chase Good Woman - Good To Me
10 - Sam Palladio, Clare Bowen - When You Open Your Eyes
<div class="sp-wrap">
<div class="sp-head folded">Лог создания рипа</div>
<div class="sp-body">

Exact Audio Copy V1.0 beta 4 from 7. December 2014

EAC extraction logfile from 11. July 2015, 19:09

Various / The Music Of Nashville Season 3 (Volume 1)

Used drive : SlimtypeDVD A DU8A5SH Adapter: 1 ID: 0

Read mode : SecureUtilize accurate stream : YesDefeat audio cache : YesMake use of C2 pointers : No

Read offset correction : 6Overread into Lead-In and Lead-Out : NoFill up missing offset samples with silence : YesDelete leading and trailing silent blocks : NoNull samples used in CRC calculations : YesUsed interface : Native Win32 interface for Win NT & 2000

Used output format : User Defined EncoderSelected bitrate : 1024 kBit/sQuality : HighAdd ID3 tag : NoCommand line compressor : C:\Program Files (x86)\Exact Audio Copy\Flac\flac.exeAdditional command line options : -V -8 -T "Date=%year%" -T "Genre=%genre%" %source%

TOC of the extracted CD

Track | Start | Length | Start sector | End sector --------------------------------------------------------- 1 | 0:00.00 | 3:41.69 | 0 | 16643 2 | 3:41.69 | 4:10.52 | 16644 | 35445 3 | 7:52.46 | 3:45.23 | 35446 | 52343 4 | 11:37.69 | 3:22.72 | 52344 | 67565 5 | 15:00.66 | 2:51.04 | 67566 | 80394 6 | 17:51.70 | 4:01.43 | 80395 | 98512 7 | 21:53.38 | 3:32.66 | 98513 | 114478 8 | 25:26.29 | 3:27.58 | 114479 | 130061 9 | 28:54.12 | 2:35.11 | 130062 | 141697 10 | 31:29.23 | 3:38.51 | 141698 | 158098

Range status and errors

Selected range

Filename Z:\mnt\nas\PIZDA\Various - The Music Of Nashville Season 3 (Volume 1).wav

Peak level 94.4 % Extraction speed 1.7 X Range quality 100.0 % Test CRC 2A727DFD Copy CRC 2A727DFD Copy OK

No errors occurred

AccurateRip summary

Track 1 accurately ripped (confidence 2) [72F61892] (AR v2)Track 2 accurately ripped (confidence 2) [6380A92A] (AR v2)Track 3 accurately ripped (confidence 2) [A10910A2] (AR v2)Track 4 accurately ripped (confidence 2) [82E6D137] (AR v2)Track 5 accurately ripped (confidence 2) [EB18ED98] (AR v2)Track 6 accurately ripped (confidence 2) [4112FC53] (AR v2)Track 7 accurately ripped (confidence 2) [B34BBFB5] (AR v2)Track 8 accurately ripped (confidence 2) [84E67640] (AR v2)Track 9 accurately ripped (confidence 2) [2024B503] (AR v2)Track 10 accurately ripped (confidence 2) [7403297B] (AR v2)

All tracks accurately ripped

End of status report
[/spoiler]
REM GENRE CountryREM DATE 2014REM DISCID 84083B0AREM COMMENT "ExactAudioCopy v1.0b4"CATALOG 0843930014385PERFORMER "Various"TITLE "The Music Of Nashville Season 3 (Volume 1)"FILE "Various - The Music Of Nashville Season 3 (Volume 1).flac" WAVE TRACK 01 AUDIO TITLE "If It's Love" PERFORMER "Chris Carmack" ISRC USJ681411430 INDEX 01 00:00:00 TRACK 02 AUDIO TITLE "Lies Of The Lonely" PERFORMER "Connie Britton" ISRC USJ681411540 INDEX 00 03:41:12 INDEX 01 03:41:69 TRACK 03 AUDIO TITLE "Disappear" PERFORMER "Hayden Panettiere" ISRC USJ681411570 INDEX 00 07:52:19 INDEX 01 07:52:46 TRACK 04 AUDIO TITLE "Carry On" PERFORMER "Clare Bowen, Mykelti Williamson" ISRC USJ681411550 INDEX 00 11:37:12 INDEX 01 11:37:69 TRACK 05 AUDIO TITLE "Gasoline And Matches" PERFORMER "Connie Britton, Laura Benanti" ISRC USJ681411510 INDEX 00 14:58:73 INDEX 01 15:00:66 TRACK 06 AUDIO TITLE "I Know How To Love You Now" PERFORMER "Chip Esten" ISRC USJ681411450 INDEX 00 17:51:15 INDEX 01 17:51:70 TRACK 07 AUDIO TITLE "If Your Heart Can Handle It" PERFORMER "Chris Carmack, Aubrey Peeples" ISRC USJ681411480 INDEX 01 21:53:38 TRACK 08 AUDIO TITLE "The Most Beautiful Girl In The World" PERFORMER "Jonathan Jackson, Sam Palladio, Chaley Rose" ISRC USJ681411560 INDEX 00 25:26:10 INDEX 01 25:26:29 TRACK 09 AUDIO TITLE "Good Woman - Good To Me" PERFORMER "Will Chase" ISRC USJ681411470 INDEX 00 28:53:52 INDEX 01 28:54:12 TRACK 10 AUDIO TITLE "When You Open Your Eyes" PERFORMER "Sam Palladio, Clare Bowen" ISRC USJ681411460 INDEX 00 31:28:37 INDEX 01 31:29:23
</div>
</div>
[spoiler="2015 - The Music Of Nashville Season 3 (Volume 2) [BMRNV0350A]"]
1 - Clare Bowen, Jonathan Jackson, Sam Palladio - Borrow My Heart
2 - Laura Benanti, Will Chase - Can't Help My Heart
3 - Chris Carmack - I'm On It
4 - Clare Bowen, Sam Palladio - Longer
5 - Connie Britton, Maisy Stella, Lennon Stella - This Is Real Life
6 - Aubrey Peeples - My Heart Don't Know When To Stop
7 - Connie Britton, Charles Esten - The Rivers Between Us
8 - Maisy Stella, Lennon Stella - I've Got You (And You've Got Me)
9 - Clare Bowen, Jonathan Jackson, Sam Palladio - My Song
10 - Laura Benanti - Sad Song
11 - Will Chase - If I Drink This Beer
12 - Chris Carmack - Broken Song
13 - Jonathan Jackson, Hayden Panettiere - Hold You In My Arms
14 - Hayden Panettiere - Mississipi Flood
15 - Jonathan Jackson - This Is What I Need To Say
16 - Lennon Stella, Maisy Stella - Heart On Fire
17 - Aubrey Peeples - I Found A Way
18 - Will Chase, Maisy Stella - Have A Little Faith In Me
19 - Jonathan Jackson, Hayden Panettiere - One By One
20 - Laura Benanti, Jonathan Jackson - Novocaine
<div class="sp-wrap">
<div class="sp-head folded">Лог создания рипа</div>
<div class="sp-body">

Exact Audio Copy V1.0 beta 4 from 7. December 2014

EAC extraction logfile from 18. July 2015, 23:38

Various / The Music Of Nashville Season 3 (Volume 2)

Used drive : SlimtypeDVD A DU8A5SH Adapter: 1 ID: 0

Read mode : SecureUtilize accurate stream : YesDefeat audio cache : YesMake use of C2 pointers : No

Read offset correction : 6Overread into Lead-In and Lead-Out : NoFill up missing offset samples with silence : YesDelete leading and trailing silent blocks : NoNull samples used in CRC calculations : YesUsed interface : Native Win32 interface for Win NT & 2000

Used output format : User Defined EncoderSelected bitrate : 1024 kBit/sQuality : HighAdd ID3 tag : NoCommand line compressor : C:\Program Files (x86)\Exact Audio Copy\Flac\flac.exeAdditional command line options : -V -8 -T "Date=%year%" -T "Genre=%genre%" %source%

TOC of the extracted CD

Track | Start | Length | Start sector | End sector --------------------------------------------------------- 1 | 0:00.00 | 3:35.03 | 0 | 16127 2 | 3:35.03 | 3:59.28 | 16128 | 34080 3 | 7:34.31 | 2:45.30 | 34081 | 46485 4 | 10:19.61 | 3:27.18 | 46486 | 62028 5 | 13:47.04 | 3:54.25 | 62029 | 79603 6 | 17:41.29 | 3:11.18 | 79604 | 93946 7 | 20:52.47 | 2:51.62 | 93947 | 106833 8 | 23:44.34 | 2:49.26 | 106834 | 119534 9 | 26:33.60 | 2:47.29 | 119535 | 132088 10 | 29:21.14 | 2:56.30 | 132089 | 145318 11 | 32:17.44 | 3:00.17 | 145319 | 158835 12 | 35:17.61 | 3:43.33 | 158836 | 175593 13 | 39:01.19 | 1:48.08 | 175594 | 183701 14 | 40:49.27 | 3:02.26 | 183702 | 197377 15 | 43:51.53 | 2:55.27 | 197378 | 210529 16 | 46:47.05 | 3:17.67 | 210530 | 225371 17 | 50:04.72 | 2:32.04 | 225372 | 236775 18 | 52:37.01 | 3:53.16 | 236776 | 254266 19 | 56:30.17 | 4:04.22 | 254267 | 272588 20 | 60:34.39 | 3:50.21 | 272589 | 289859

Range status and errors

Selected range

Filename Z:\mnt\nas\PIZDA\Various - The Music Of Nashville Season 3 (Volume 2).wav

Peak level 94.4 % Extraction speed 1.9 X Range quality 99.9 % Test CRC BFEED288 Copy CRC BFEED288 Copy OK

No errors occurred

AccurateRip summary

Track 1 accurately ripped (confidence 1) [E6FF6C74] (AR v2)Track 2 accurately ripped (confidence 1) [BADC51DB] (AR v2)Track 3 accurately ripped (confidence 1) [B19D4EDB] (AR v2)Track 4 accurately ripped (confidence 1) [261F383F] (AR v2)Track 5 accurately ripped (confidence 1) [8EBCCBC2] (AR v2)Track 6 accurately ripped (confidence 1) [83C7966A] (AR v2)Track 7 accurately ripped (confidence 1) [42811F2E] (AR v2)Track 8 accurately ripped (confidence 1) [4EE156B7] (AR v2)Track 9 accurately ripped (confidence 1) [7E98EDE0] (AR v2)Track 10 accurately ripped (confidence 1) [4015B959] (AR v2)Track 11 accurately ripped (confidence 1) [CD1FA57B] (AR v2)Track 12 accurately ripped (confidence 1) [FEBF0CCD] (AR v2)Track 13 accurately ripped (confidence 1) [2D3C02DB] (AR v2)Track 14 accurately ripped (confidence 1) [9415F649] (AR v2)Track 15 accurately ripped (confidence 1) [E4299553] (AR v2)Track 16 accurately ripped (confidence 1) [6A4B709B] (AR v2)Track 17 accurately ripped (confidence 1) [F9BA97DF] (AR v2)Track 18 accurately ripped (confidence 1) [DB8EDCC0] (AR v2)Track 19 accurately ripped (confidence 1) [36DA738C] (AR v2)Track 20 accurately ripped (confidence 1) [A5D58FAF] (AR v2)

All tracks accurately ripped

End of status report
[/spoiler]
REM GENRE CountryREM DATE 2015REM DISCID 1A0F1814REM COMMENT "ExactAudioCopy v1.0b4"CATALOG 0843930016594PERFORMER "Various"TITLE "The Music Of Nashville Season 3 (Volume 2)"FILE "Various - The Music Of Nashville Season 3 (Volume 2).flac" WAVE TRACK 01 AUDIO TITLE "Borrow My Heart" PERFORMER "Clare Bowen, Jonathan Jackson, Sam Palladio" ISRC USJ681511320 INDEX 01 00:00:00 TRACK 02 AUDIO TITLE "Can't Help My Heart" PERFORMER "Laura Benanti, Will Chase" ISRC USJ681511150 INDEX 00 03:33:25 INDEX 01 03:35:03 TRACK 03 AUDIO TITLE "I'm On It" PERFORMER "Chris Carmack" ISRC USJ681511020 INDEX 01 07:34:31 TRACK 04 AUDIO TITLE "Longer" PERFORMER "Clare Bowen, Sam Palladio" ISRC USJ681511190 INDEX 00 10:18:59 INDEX 01 10:19:61 TRACK 05 AUDIO TITLE "This Is Real Life" PERFORMER "Connie Britton, Lennon & Maisy" ISRC USJ681511330 INDEX 00 13:46:53 INDEX 01 13:47:04 TRACK 06 AUDIO TITLE "My Heart Don't Know When To Stop" PERFORMER "Aubrey Peeples" ISRC USJ681511220 INDEX 00 17:40:25 INDEX 01 17:41:29 TRACK 07 AUDIO TITLE "The Rivers Between Us" PERFORMER "Connie Britton, Charles Esten" ISRC USJ681511040 INDEX 00 20:51:63 INDEX 01 20:52:47 TRACK 08 AUDIO TITLE "I've Got You (And You've Got Me)" PERFORMER "Lennon & Maisy" ISRC USJ681511000 INDEX 00 23:44:26 INDEX 01 23:44:34 TRACK 09 AUDIO TITLE "My Song" PERFORMER "Clare Bowen, Jonathan Jackson, Sam Palladio" ISRC USJ681511160 INDEX 00 26:32:54 INDEX 01 26:33:60 TRACK 10 AUDIO TITLE "Sad Song" PERFORMER "Laura Benanti" ISRC USJ681511010 INDEX 01 29:21:14 TRACK 11 AUDIO TITLE "If I Drink This Beer" PERFORMER "Will Chase" ISRC USJ681411660 INDEX 00 32:15:61 INDEX 01 32:17:44 TRACK 12 AUDIO TITLE "Broken Song" PERFORMER "Chris Carmack" ISRC USJ681511140 INDEX 00 35:16:03 INDEX 01 35:17:61 TRACK 13 AUDIO TITLE "Hold You In My Arms" PERFORMER "Jonathan Jackson, Hayden Panettiere" ISRC USJ681511200 INDEX 00 39:00:15 INDEX 01 39:01:19 TRACK 14 AUDIO TITLE "Mississipi Flood" PERFORMER "Hayden Panettiere" ISRC USJ681511310 INDEX 00 40:48:20 INDEX 01 40:49:27 TRACK 15 AUDIO TITLE "This Is What I Need To Say" PERFORMER "Jonathan Jackson" ISRC USJ681511170 INDEX 01 43:51:53 TRACK 16 AUDIO TITLE "Heart On Fire" PERFORMER "Lennon & Maisy" ISRC USJ681411680 INDEX 00 46:46:59 INDEX 01 46:47:05 TRACK 17 AUDIO TITLE "I Found A Way" PERFORMER "Aubrey Peeples" ISRC USJ681511340 INDEX 00 50:04:32 INDEX 01 50:04:72 TRACK 18 AUDIO TITLE "Have A Little Faith In Me" PERFORMER "Will Chase, Mayisy Stella" ISRC USJ681511260 INDEX 00 52:35:68 INDEX 01 52:37:01 TRACK 19 AUDIO TITLE "One By One" PERFORMER "Jonathan Jackson, Hayden Panettiere" ISRC USJ681511350 INDEX 00 56:29:73 INDEX 01 56:30:17 TRACK 20 AUDIO TITLE "Novocaine" PERFORMER "Laura Benanti, Jonathan Jackson" ISRC USJ681511360 INDEX 00 60:34:37 INDEX 01 60:34:39
</div>
</div>
[spoiler="2015 - The Music Of Nashville Season 4 (Volume 1) [BMRNV0400A]"]
1 - Charles Esten - Like New
2 - Lennon Stella - Beyond The Sun
3 - Mark Collie - Hodling On To What I Can't Hold
4 - Aubrey Peeples - Too Far From You
5 - Clare Bowen, Sam Palladio - Plenty Far To Fall
6 - Hayden Panettiere, Steven Tyler - Crazy
7 - Will Chase - Spinning Revolver
8 - Chris Carmack, Jonathan Jackson - Sleep Tonight (A Lullaby)
9 - Riley Smith - In The Name Of Your Love
10 - Chris Carmack - Run With Me
11 - Clare Bowen - Speak To Me
12 - Connie Britton, Riley Smith - I Want To (Do Everything For You)
13 - Jonathan Jackson - History Of My Heart
14 - Hayden Panettiere - What If It's You
15 - Sam Palladio - Count On Me
16 - Maisy Stella, Lennon Stella - Rockin' & Rollin'
17 - Chaley Rose - Take My Hand Precious Lord
<div class="sp-wrap">
<div class="sp-head folded">Лог создания рипа</div>
<div class="sp-body">

Exact Audio Copy V1.3 from 2. September 2016

EAC extraction logfile from 28. September 2016, 22:15

Various / The Music Of Nashville Season 4 (Volume 1)

Used drive : SlimtypeDVD A DU8A5SH Adapter: 1 ID: 0

Read mode : SecureUtilize accurate stream : YesDefeat audio cache : YesMake use of C2 pointers : No

Read offset correction : 6Overread into Lead-In and Lead-Out : NoFill up missing offset samples with silence : YesDelete leading and trailing silent blocks : NoNull samples used in CRC calculations : YesUsed interface : Native Win32 interface for Win NT & 2000

Used output format : User Defined EncoderSelected bitrate : 1024 kBit/sQuality : HighAdd ID3 tag : NoCommand line compressor : C:\Program Files (x86)\Exact Audio Copy\Flac\flac.exeAdditional command line options : -T "COMMENT=by k0ste for rutracker.org" -V -8 -T "Date=%year%" -T "Genre=%genre%" %source%

TOC of the extracted CD

Track | Start | Length | Start sector | End sector --------------------------------------------------------- 1 | 0:00.00 | 3:14.70 | 0 | 14619 2 | 3:14.70 | 3:08.32 | 14620 | 28751 3 | 6:23.27 | 3:32.10 | 28752 | 44661 4 | 9:55.37 | 3:35.49 | 44662 | 60835 5 | 13:31.11 | 2:21.27 | 60836 | 71437 6 | 15:52.38 | 2:25.31 | 71438 | 82343 7 | 18:17.69 | 3:28.04 | 82344 | 97947 8 | 21:45.73 | 3:06.34 | 97948 | 111931 9 | 24:52.32 | 3:33.16 | 111932 | 127922 10 | 28:25.48 | 3:11.21 | 127923 | 142268 11 | 31:36.69 | 4:11.70 | 142269 | 161163 12 | 35:48.64 | 2:23.33 | 161164 | 171921 13 | 38:12.22 | 3:20.31 | 171922 | 186952 14 | 41:32.53 | 4:01.11 | 186953 | 205038 15 | 45:33.64 | 3:27.50 | 205039 | 220613 16 | 49:01.39 | 3:15.46 | 220614 | 235284 17 | 52:17.10 | 2:35.23 | 235285 | 246932

Range status and errors

Selected range

Filename Z:\mnt\nas\PIZDA\Various - The Music Of Nashville Season 4 (Volume 1).wav

Peak level 94.4 % Extraction speed 1.8 X Range quality 99.9 % Test CRC 71FA2A2B Copy CRC 71FA2A2B Copy OK

No errors occurred

AccurateRip summary

Track 1 accurately ripped (confidence 3) [F8E98998] (AR v2)Track 2 accurately ripped (confidence 3) [B48BE954] (AR v2)Track 3 accurately ripped (confidence 3) [2CDA1B3A] (AR v2)Track 4 accurately ripped (confidence 3) [FE247A4F] (AR v2)Track 5 accurately ripped (confidence 3) [92453313] (AR v2)Track 6 accurately ripped (confidence 3) [1EDB18E1] (AR v2)Track 7 accurately ripped (confidence 3) [9B889594] (AR v2)Track 8 accurately ripped (confidence 3) [8A15696A] (AR v2)Track 9 accurately ripped (confidence 3) [340D59A4] (AR v2)Track 10 accurately ripped (confidence 3) [AACCBC4F] (AR v2)Track 11 accurately ripped (confidence 3) [3BB5B537] (AR v2)Track 12 accurately ripped (confidence 3) [33914E31] (AR v2)Track 13 accurately ripped (confidence 3) [9563BCD6] (AR v2)Track 14 accurately ripped (confidence 3) [D3E1E628] (AR v2)Track 15 accurately ripped (confidence 3) [6F9075BB] (AR v2)Track 16 accurately ripped (confidence 3) [73684E77] (AR v2)Track 17 accurately ripped (confidence 3) [56999279] (AR v2)

All tracks accurately ripped

End of status report

==== Log checksum 2B19A13898F8095D580525A522AA3FE9E9CE2DC0F8D719AE80772F61C8316559 ====
[/spoiler]
REM GENRE CountryREM DATE 2015REM DISCID 0E0CDC11REM COMMENT "ExactAudioCopy v1.3"CATALOG 0843930020775PERFORMER "Various"TITLE "The Music Of Nashville Season 4 (Volume 1)"REM COMPOSER ""FILE "Various - The Music Of Nashville Season 4 (Volume 1).flac" WAVE TRACK 01 AUDIO TITLE "Like New" PERFORMER "Charles Esten" REM COMPOSER "" ISRC USJ681511620 INDEX 01 00:00:00 TRACK 02 AUDIO TITLE "Beyond The Sun" PERFORMER "Lennon Stella" REM COMPOSER "" ISRC USJ681511480 INDEX 00 03:13:40 INDEX 01 03:14:70 TRACK 03 AUDIO TITLE "Holding On To What I Can't Hold" PERFORMER "Mark Collie" REM COMPOSER "" ISRC USJ681511610 INDEX 00 06:22:62 INDEX 01 06:23:27 TRACK 04 AUDIO TITLE "Too Far From You" PERFORMER "Aubrey Peeples" REM COMPOSER "" ISRC USJ681511630 INDEX 01 09:55:37 TRACK 05 AUDIO TITLE "Plenty Far To Fall" PERFORMER "Clare Bowen, Sam Palladio" REM COMPOSER "" ISRC USJ681511640 INDEX 00 13:29:04 INDEX 01 13:31:11 TRACK 06 AUDIO TITLE "Crazy" PERFORMER "Steven Tyler, Hayden Pannettiere" REM COMPOSER "" ISRC USJ681511440 INDEX 00 15:51:10 INDEX 01 15:52:38 TRACK 07 AUDIO TITLE "Spinning Revolver" PERFORMER "Will Chase" REM COMPOSER "" ISRC USJ681511550 INDEX 00 18:16:60 INDEX 01 18:17:69 TRACK 08 AUDIO TITLE "Sleep Tonight (A Lullaby)" PERFORMER "Chris Carmack, Jonathan Jackson" REM COMPOSER "" ISRC USJ681511650 INDEX 00 21:44:55 INDEX 01 21:45:73 TRACK 09 AUDIO TITLE "In The Name Of Your Love" PERFORMER "Riley Smith" REM COMPOSER "" ISRC USJ681511590 INDEX 00 24:51:26 INDEX 01 24:52:32 TRACK 10 AUDIO TITLE "Run With Me" PERFORMER "Chris Carmack" REM COMPOSER "" ISRC USJ681511600 INDEX 00 28:24:05 INDEX 01 28:25:48 TRACK 11 AUDIO TITLE "Speak To Me" PERFORMER "Clare Bowen" REM COMPOSER "" ISRC USJ681511500 INDEX 00 31:34:62 INDEX 01 31:36:69 TRACK 12 AUDIO TITLE "I Want To (Do Everything For You)" PERFORMER "Connie Britton, Riley Smith" REM COMPOSER "" ISRC USJ681511510 INDEX 00 35:47:09 INDEX 01 35:48:64 TRACK 13 AUDIO TITLE "History Of My Heart" PERFORMER "Jonathan Jackson" REM COMPOSER "" ISRC USJ681511660 INDEX 00 38:10:61 INDEX 01 38:12:22 TRACK 14 AUDIO TITLE "What If It's You" PERFORMER "Hayden Pannettiere" REM COMPOSER "" ISRC USJ681511460 INDEX 00 41:31:50 INDEX 01 41:32:53 TRACK 15 AUDIO TITLE "Count On Me" PERFORMER "Sam Palladio" REM COMPOSER "" ISRC USJ681511540 INDEX 00 45:32:60 INDEX 01 45:33:64 TRACK 16 AUDIO TITLE "Rockin' & Rollin'" PERFORMER "Lennon & Maisy Stella" REM COMPOSER "" ISRC USJ681511470 INDEX 00 48:59:57 INDEX 01 49:01:39 TRACK 17 AUDIO TITLE "Take My Hand Precious Lord" PERFORMER "Chaley Rose" REM COMPOSER "" ISRC USJ681511520 INDEX 00 52:15:31 INDEX 01 52:17:10
</div>
</div>
[spoiler="2016 - The Music Of Nashville Season 4 (Volume 2) [BMRNV0450A]"]
1 - Will Chase - Can't Say No To Love
2 - Aubrey Peeples, Jonathan Jackson - Soul Survivor
3 - Clare Bowen - Only Tennessee
4 - Jonathan Jackson - Kinda Dig The Feeling
5 - Lennon Stella, Jessy Schram - Swept Away
6 - Chris Carmack - Movin' On Never Felt So Good
7 - Charles Esten - From Here On Out
8 - Clare Bowen, Sam Palladio - The Rubble
9 - Hayden Panettiere - Hole In The World
10 - Maisy Stella - 'Til The Stars Come Out Again
11 - Aubrey Peeples - Caged Bird
12 - Hayden Panettiere - One Place Too Long
13 - Chris Carmack - Ain't It Beautiful
14 - Lennon Stella - Wild Card
15 - Will Chase, Hayden Panettiere - Boomtown
16 - Lennon & Maisy - All We Ever Wanted
17 - Connie Britton - Hold On To Me
<div class="sp-wrap">
<div class="sp-head folded">Лог создания рипа</div>
<div class="sp-body">

Exact Audio Copy V1.3 from 2. September 2016

EAC extraction logfile from 28. September 2016, 21:24

Various / The Music Of Nashville Season 4 (Volume 2)

Used drive : SlimtypeDVD A DU8A5SH Adapter: 1 ID: 0

Read mode : SecureUtilize accurate stream : YesDefeat audio cache : YesMake use of C2 pointers : No

Read offset correction : 6Overread into Lead-In and Lead-Out : NoFill up missing offset samples with silence : YesDelete leading and trailing silent blocks : NoNull samples used in CRC calculations : YesUsed interface : Native Win32 interface for Win NT & 2000

Used output format : User Defined EncoderSelected bitrate : 1024 kBit/sQuality : HighAdd ID3 tag : NoCommand line compressor : C:\Program Files (x86)\Exact Audio Copy\Flac\flac.exeAdditional command line options : -T "COMMENT=by k0ste for rutracker.org" -V -8 -T "Date=%year%" -T "Genre=%genre%" %source%

TOC of the extracted CD

Track | Start | Length | Start sector | End sector --------------------------------------------------------- 1 | 0:00.00 | 3:19.24 | 0 | 14948 2 | 3:19.24 | 3:51.37 | 14949 | 32310 3 | 7:10.61 | 3:15.35 | 32311 | 46970 4 | 10:26.21 | 2:36.51 | 46971 | 58721 5 | 13:02.72 | 3:42.01 | 58722 | 75372 6 | 16:44.73 | 3:50.16 | 75373 | 92638 7 | 20:35.14 | 4:07.33 | 92639 | 111196 8 | 24:42.47 | 2:54.26 | 111197 | 124272 9 | 27:36.73 | 3:31.48 | 124273 | 140145 10 | 31:08.46 | 2:30.30 | 140146 | 151425 11 | 33:39.01 | 3:50.14 | 151426 | 168689 12 | 37:29.15 | 3:02.15 | 168690 | 182354 13 | 40:31.30 | 3:34.47 | 182355 | 198451 14 | 44:06.02 | 3:16.55 | 198452 | 213206 15 | 47:22.57 | 3:46.31 | 213207 | 230187 16 | 51:09.13 | 2:46.54 | 230188 | 242691 17 | 53:55.67 | 3:45.15 | 242692 | 259581

Range status and errors

Selected range

Filename Z:\mnt\nas\PIZDA\Various - The Music Of Nashville Season 4 (Volume 2).wav

Peak level 94.4 % Extraction speed 1.9 X Range quality 99.9 % Test CRC A6F40241 Copy CRC A6F40241 Copy OK

No errors occurred

AccurateRip summary

Track 1 accurately ripped (confidence 2) [1A85F469] (AR v2)Track 2 accurately ripped (confidence 2) [2170727A] (AR v2)Track 3 accurately ripped (confidence 2) [39FB8D86] (AR v2)Track 4 accurately ripped (confidence 2) [6BF1D5BD] (AR v2)Track 5 accurately ripped (confidence 2) [CF9F7622] (AR v2)Track 6 accurately ripped (confidence 2) [93E61135] (AR v2)Track 7 accurately ripped (confidence 2) [CA61DBE3] (AR v2)Track 8 accurately ripped (confidence 2) [405D6046] (AR v2)Track 9 accurately ripped (confidence 2) [045E584A] (AR v2)Track 10 accurately ripped (confidence 2) [9BDE72E2] (AR v2)Track 11 accurately ripped (confidence 2) [060F2FEA] (AR v2)Track 12 accurately ripped (confidence 2) [A07C67DC] (AR v2)Track 13 accurately ripped (confidence 2) [677C73FF] (AR v2)Track 14 accurately ripped (confidence 2) [7F583BA0] (AR v2)Track 15 accurately ripped (confidence 2) [9F98B82C] (AR v2)Track 16 accurately ripped (confidence 2) [0A6FA57B] (AR v2)Track 17 accurately ripped (confidence 2) [7A600D66] (AR v2)

All tracks accurately ripped

End of status report

==== Log checksum E6C8E261186BD1FB119F06CC1D9B136F233A1A71A9E868C4708A10F5521671AA ====
[/spoiler]
REM GENRE CountryREM DATE 2016REM DISCID D50D8511REM COMMENT "ExactAudioCopy v1.3"CATALOG 0843930023660PERFORMER "Various"TITLE "The Music Of Nashville Season 4 (Volume 2)"REM COMPOSER ""FILE "Various - The Music Of Nashville Season 4 (Volume 2).flac" WAVE TRACK 01 AUDIO TITLE "Can't Say No To Love" PERFORMER "Will Chase" REM COMPOSER "" ISRC USJ681611180 INDEX 01 00:00:00 TRACK 02 AUDIO TITLE "Soul Survivor" PERFORMER "Aubrey Peeples, Jonathan Jackson" REM COMPOSER "" ISRC USJ681611230 INDEX 00 03:18:60 INDEX 01 03:19:24 TRACK 03 AUDIO TITLE "Only Tennessee" PERFORMER "Clare Bowen" REM COMPOSER "" ISRC USJ681511690 INDEX 00 07:09:73 INDEX 01 07:10:61 TRACK 04 AUDIO TITLE "Kinda Dig The Feeling" PERFORMER "Jonathan Jackson" REM COMPOSER "" ISRC USJ681611240 INDEX 00 10:25:18 INDEX 01 10:26:21 TRACK 05 AUDIO TITLE "Swept Away" PERFORMER "Lennon Stella, Jessy Schram" REM COMPOSER "" ISRC USJ681611060 INDEX 00 13:02:39 INDEX 01 13:02:72 TRACK 06 AUDIO TITLE "Movin' On Never Felt So Good" PERFORMER "Chris Carmack" REM COMPOSER "" ISRC USJ681611160 INDEX 00 16:43:15 INDEX 01 16:44:73 TRACK 07 AUDIO TITLE "From Here On Out" PERFORMER "Charles Esten" REM COMPOSER "" ISRC USJ681611030 INDEX 00 20:34:23 INDEX 01 20:35:14 TRACK 08 AUDIO TITLE "The Rubble" PERFORMER "Clare Bowen, Sam Palladio" REM COMPOSER "" ISRC USJ681611100 INDEX 00 24:42:08 INDEX 01 24:42:47 TRACK 09 AUDIO TITLE "Hole In The World" PERFORMER "Hayden Panettiere" REM COMPOSER "" ISRC USJ681611150 INDEX 00 27:36:09 INDEX 01 27:36:73 TRACK 10 AUDIO TITLE "'Til The Stars Come Out Again" PERFORMER "Maisy Stella" REM COMPOSER "" ISRC USJ681511720 INDEX 00 31:08:17 INDEX 01 31:08:46 TRACK 11 AUDIO TITLE "Caged Bird" PERFORMER "Aubrey Peeples" REM COMPOSER "" ISRC USJ681611200 INDEX 00 33:37:37 INDEX 01 33:39:01 TRACK 12 AUDIO TITLE "One Place Too Long" PERFORMER "Hayden Panettiere" REM COMPOSER "" ISRC USJ681611190 INDEX 00 37:27:61 INDEX 01 37:29:15 TRACK 13 AUDIO TITLE "Ain't It Beautiful" PERFORMER "Chris Carmack" REM COMPOSER "" ISRC USJ681611050 INDEX 00 40:30:61 INDEX 01 40:31:30 TRACK 14 AUDIO TITLE "Wild Card" PERFORMER "Lennon Stella" REM COMPOSER "" ISRC USJ681611140 INDEX 00 44:05:21 INDEX 01 44:06:02 TRACK 15 AUDIO TITLE "Boomtown" PERFORMER "Will Chase, Hayden Panettiere" REM COMPOSER "" ISRC USJ681611250 INDEX 00 47:21:52 INDEX 01 47:22:57 TRACK 16 AUDIO TITLE "All We Ever Wanted" PERFORMER "Lennon & Maisy" REM COMPOSER "" ISRC USJ681611000 INDEX 00 51:08:35 INDEX 01 51:09:13 TRACK 17 AUDIO TITLE "Hold On To Me" PERFORMER "Connie Britton" REM COMPOSER "" ISRC USJ681611220 INDEX 00 53:55:14 INDEX 01 53:55:67
</div>
</div>
[spoiler="2017 - The Music Of Nashville Season 5 (Volume 1) [00843930029099]"]
1 - Rhiannon Giddens - God Shall Wipe All Tears Away
2 - Lennon & Maisy - Your Best
3 - Clare Bowen & Sam Palladio - All Of Me
4 - Charles Esten - Simple As That
5 - Joseph David-Jones - A Few Steps My Way
6 - Connie Britton & Charles Esten - My Favorite Hurricane
7 - Chris Carmack - Burn To Dark
8 - Hayden Panettiere With Jonathan Jackson - On My Way
9 - Jonathan Jackson - Won't Back Down
10 - Charles Esten, Lennon & Maisy - Sanctuary
<div class="sp-wrap">
<div class="sp-head folded">Лог создания рипа</div>
<div class="sp-body">

Exact Audio Copy V1.3 from 2. September 2016

EAC extraction logfile from 29. July 2017, 16:45

Various / The Music Of Nashville Season 5 (Volume 1)

Used drive : SlimtypeDVD A DU8A5SH Adapter: 1 ID: 0

Read mode : SecureUtilize accurate stream : YesDefeat audio cache : YesMake use of C2 pointers : No

Read offset correction : 6Overread into Lead-In and Lead-Out : NoFill up missing offset samples with silence : YesDelete leading and trailing silent blocks : NoNull samples used in CRC calculations : YesUsed interface : Native Win32 interface for Win NT & 2000

Used output format : User Defined EncoderSelected bitrate : 1024 kBit/sQuality : HighAdd ID3 tag : NoCommand line compressor : C:\Program Files (x86)\Exact Audio Copy\Flac\flac.exeAdditional command line options : -T "COMMENT=by k0ste for rutracker.org" -V -8 -T "Date=%year%" -T "Genre=%genre%" %source%

TOC of the extracted CD

Track | Start | Length | Start sector | End sector --------------------------------------------------------- 1 | 0:00.00 | 2:49.46 | 0 | 12720 2 | 2:49.46 | 3:08.55 | 12721 | 26875 3 | 5:58.26 | 3:22.19 | 26876 | 42044 4 | 9:20.45 | 3:08.00 | 42045 | 56144 5 | 12:28.45 | 3:32.41 | 56145 | 72085 6 | 16:01.11 | 3:17.29 | 72086 | 86889 7 | 19:18.40 | 1:54.06 | 86890 | 95445 8 | 21:12.46 | 4:01.74 | 95446 | 113594 9 | 25:14.45 | 2:54.14 | 113595 | 126658 10 | 28:08.59 | 3:25.59 | 126659 | 142092

Range status and errors

Selected range

Filename Z:\mnt\nas\PIZDA\Various - The Music Of Nashville Season 5 Volume 1.wav

Peak level 98.5 % Extraction speed 1.6 X Range quality 100.0 % Test CRC 2EE18996 Copy CRC 2EE18996 Copy OK

No errors occurred

AccurateRip summary

Track 1 accurately ripped (confidence 1) [E1D61FFA] (AR v2)Track 2 accurately ripped (confidence 1) [29CDABEA] (AR v2)Track 3 accurately ripped (confidence 1) [D5E21EDB] (AR v2)Track 4 accurately ripped (confidence 1) [DA55594A] (AR v2)Track 5 accurately ripped (confidence 1) [BFE04392] (AR v2)Track 6 accurately ripped (confidence 1) [C216EAA2] (AR v2)Track 7 accurately ripped (confidence 1) [176513AC] (AR v2)Track 8 accurately ripped (confidence 1) [DA9BF2FF] (AR v2)Track 9 accurately ripped (confidence 1) [3E697FFF] (AR v2)Track 10 accurately ripped (confidence 1) [A388E646] (AR v2)

All tracks accurately ripped

End of status report

==== Log checksum FB650D9E94647DF345EF3779EF0D5F4583CF55BF83B6822AD8428E26D144B56E ====
[/spoiler]
REM GENRE CountryREM DATE 2017REM DISCID 7207660AREM COMMENT "ExactAudioCopy v1.3"CATALOG 0843930029099PERFORMER "Various"TITLE "The Music Of Nashville Season 5 (Volume 1)"REM COMPOSER ""FILE "Various - The Music Of Nashville Season 5 Volume 1.flac" WAVE TRACK 01 AUDIO TITLE "God Shall Wipe All Tears Away" PERFORMER "Rhiannon Giddens" REM COMPOSER "" ISRC USJ681711010 INDEX 01 00:00:00 TRACK 02 AUDIO TITLE "Your Best" PERFORMER "Lennon & Maisy" REM COMPOSER "" ISRC USJ681711020 INDEX 00 02:48:40 INDEX 01 02:49:46 TRACK 03 AUDIO TITLE "All Of Me" PERFORMER "Clare Bowen, Sam Palladio" REM COMPOSER "" ISRC USJ681711050 INDEX 00 05:56:73 INDEX 01 05:58:26 TRACK 04 AUDIO TITLE "Simple As That" PERFORMER "Charles Esten" REM COMPOSER "" ISRC USJ681711060 INDEX 01 09:20:45 TRACK 05 AUDIO TITLE "A Few Steps My Way" PERFORMER "Joseph David-Jones" REM COMPOSER "" ISRC USJ681711080 INDEX 00 12:27:12 INDEX 01 12:28:45 TRACK 06 AUDIO TITLE "My Favorite Hurricane" PERFORMER "Connie Britton, Charles Esten" REM COMPOSER "" ISRC USJ681711150 INDEX 00 16:00:23 INDEX 01 16:01:11 TRACK 07 AUDIO TITLE "Burn To Dark" PERFORMER "Chris Carmack" REM COMPOSER "" ISRC USJ681711110 INDEX 00 19:16:35 INDEX 01 19:18:40 TRACK 08 AUDIO TITLE "On My Way" PERFORMER "Hayden Panettiere, Jonathan Jackson" REM COMPOSER "" ISRC USJ681711090 INDEX 00 21:12:03 INDEX 01 21:12:46 TRACK 09 AUDIO TITLE "Won't Back Down" PERFORMER "Jonathan Jackson" REM COMPOSER "" ISRC USJ681711160 INDEX 00 25:14:11 INDEX 01 25:14:45 TRACK 10 AUDIO TITLE "Sanctuary" PERFORMER "Charles Esten, Lennon & Maisy" REM COMPOSER "" ISRC USJ681711230 INDEX 00 28:07:23 INDEX 01 28:08:59
</div>
</div>
[spoiler="2017 - The Music Of Nashville Season 5 (Volume 2) [00843930030293]"]
1 - Connie Britton, Clare Bowen, Charles Esten, Sam Palladio, Hayden Panettiere, Chris Carmack, Jonathan Jackson, Lennon & Maisy - You're Mine
2 - Chris Carmack - By Your Side
3 - Jonathan Jackson - Eye Of The Storm
4 - Lennon & Maisy - Back Again
5 - Will Chase - Wide Open
6 - Lennon Stella - Saved
7 - Clare Bowen, Sam Palladio - The Hell Of It Is
8 - Joseph David-Jones - Before You
9 - Rhiannon Giddens - Sourwood Mountain
10 - Connie Britton, Charles Esten - Can't Remember Never Loving You
11 - Charles Esten, Lennon & Maisy - A Life That's Good
12 - Lennon & Maisy - In Love
13 - Joseph David-Jones - This World Don't Owe Me Nothin'
14 - Rhiannon Giddens - Can't Nobody Do Me Like Jesus
15 - Lennon & Maisy - You' Best (Acoustic Version)
16 - Jessie Early - I'll Fly Away
<div class="sp-wrap">
<div class="sp-head folded">Лог создания рипа</div>
<div class="sp-body">

Exact Audio Copy V1.3 from 2. September 2016

EAC extraction logfile from 29. July 2017, 18:28

Various / The Music Of Nashville Season 5 (Volume 2)

Used drive : SlimtypeDVD A DU8A5SH Adapter: 1 ID: 0

Read mode : SecureUtilize accurate stream : YesDefeat audio cache : YesMake use of C2 pointers : No

Read offset correction : 6Overread into Lead-In and Lead-Out : NoFill up missing offset samples with silence : YesDelete leading and trailing silent blocks : NoNull samples used in CRC calculations : YesUsed interface : Native Win32 interface for Win NT & 2000

Used output format : User Defined EncoderSelected bitrate : 1024 kBit/sQuality : HighAdd ID3 tag : NoCommand line compressor : C:\Program Files (x86)\Exact Audio Copy\Flac\flac.exeAdditional command line options : -T "COMMENT=by k0ste for rutracker.org" -V -8 -T "Date=%year%" -T "Genre=%genre%" %source%

TOC of the extracted CD

Track | Start | Length | Start sector | End sector --------------------------------------------------------- 1 | 0:00.00 | 2:18.36 | 0 | 10385 2 | 2:18.36 | 3:21.22 | 10386 | 25482 3 | 5:39.58 | 3:02.57 | 25483 | 39189 4 | 8:42.40 | 2:48.17 | 39190 | 51806 5 | 11:30.57 | 3:06.12 | 51807 | 65768 6 | 14:36.69 | 3:18.13 | 65769 | 80631 7 | 17:55.07 | 2:49.10 | 80632 | 93316 8 | 20:44.17 | 3:17.05 | 93317 | 108096 9 | 24:01.22 | 2:12.09 | 108097 | 118005 10 | 26:13.31 | 3:04.72 | 118006 | 131877 11 | 29:18.28 | 3:30.23 | 131878 | 147650 12 | 32:48.51 | 3:19.42 | 147651 | 162617 13 | 36:08.18 | 3:24.55 | 162618 | 177972 14 | 39:32.73 | 3:23.49 | 177973 | 193246 15 | 42:56.47 | 2:33.13 | 193247 | 204734 16 | 45:29.60 | 3:17.04 | 204735 | 219513

Range status and errors

Selected range

Filename Z:\mnt\nas\PIZDA\Various - The Music Of Nashville Season 5 Volume 2.wav

Peak level 100.0 % Extraction speed 1.7 X Range quality 99.9 % Test CRC 38726297 Copy CRC 38726297 Copy OK

No errors occurred

AccurateRip summary

Track 1 not present in databaseTrack 2 not present in databaseTrack 3 not present in databaseTrack 4 not present in databaseTrack 5 not present in databaseTrack 6 not present in databaseTrack 7 not present in databaseTrack 8 not present in databaseTrack 9 not present in databaseTrack 10 not present in databaseTrack 11 not present in databaseTrack 12 not present in databaseTrack 13 not present in databaseTrack 14 not present in databaseTrack 15 not present in databaseTrack 16 not present in database

None of the tracks are present in the AccurateRip database

End of status report

==== Log checksum 940027BD379C49AA61B05B79457FD308EA97671B01260E8315A1727993A9C3DC ====
[/spoiler]
REM GENRE CountryREM DATE 2017REM DISCID D80B6E10REM COMMENT "ExactAudioCopy v1.3"CATALOG 0843930030293PERFORMER "Various"TITLE "The Music Of Nashville Season 5 (Volume 2)"REM COMPOSER ""FILE "Various - The Music Of Nashville Season 5 Volume 2.flac" WAVE TRACK 01 AUDIO TITLE "You're Mine" PERFORMER "Connie Britton, Clare Bowen, Charles Esten, Sam Palladio, Hayden Panettiere, ..." REM COMPOSER "" ISRC USJ681711290 INDEX 01 00:00:00 TRACK 02 AUDIO TITLE "By Your Side" PERFORMER "Chris Carmack" REM COMPOSER "" ISRC USJ681711220 INDEX 00 02:17:74 INDEX 01 02:18:36 TRACK 03 AUDIO TITLE "Eye Of The Storm" PERFORMER "Jonathan Jackson" REM COMPOSER "" ISRC USJ681711180 INDEX 00 05:38:24 INDEX 01 05:39:58 TRACK 04 AUDIO TITLE "Back Again" PERFORMER "Lennon & Maisy" REM COMPOSER "" ISRC USJ681711270 INDEX 00 08:41:24 INDEX 01 08:42:40 TRACK 05 AUDIO TITLE "Wide Open" PERFORMER "Will Chase" REM COMPOSER "" ISRC USJ681711170 INDEX 00 11:30:39 INDEX 01 11:30:57 TRACK 06 AUDIO TITLE "Saved" PERFORMER "Lennon Stella" REM COMPOSER "" ISRC USJ681711360 INDEX 00 14:35:67 INDEX 01 14:36:69 TRACK 07 AUDIO TITLE "The Hell Of It Is" PERFORMER "Clare Bowen, Sam Palladio" REM COMPOSER "" ISRC USJ681711370 INDEX 00 17:53:66 INDEX 01 17:55:07 TRACK 08 AUDIO TITLE "Before You" PERFORMER "Joseph David-Jones" REM COMPOSER "" ISRC USJ681711120 INDEX 00 20:43:36 INDEX 01 20:44:17 TRACK 09 AUDIO TITLE "Sourwood Mountain" PERFORMER "Rhiannon Giddens" REM COMPOSER "" ISRC USJ681711250 INDEX 00 24:01:10 INDEX 01 24:01:22 TRACK 10 AUDIO TITLE "Can't Remember Never Loving You" PERFORMER "Connie Britton, Charles Esten" REM COMPOSER "" ISRC USJ681711280 INDEX 00 26:12:55 INDEX 01 26:13:31 TRACK 11 AUDIO TITLE "A Life That's Good" PERFORMER "Charles Esten, Lennon & Maisy" REM COMPOSER "" ISRC USJ681711210 INDEX 00 29:17:05 INDEX 01 29:18:28 TRACK 12 AUDIO TITLE "In Love" PERFORMER "Lennon & Maisy" REM COMPOSER "" ISRC USJ681711130 INDEX 00 32:48:04 INDEX 01 32:48:51 TRACK 13 AUDIO TITLE "This World Don't Owe Me Nothin'" PERFORMER "Joseph David-Jones" REM COMPOSER "" ISRC USJ681711140 INDEX 00 36:07:57 INDEX 01 36:08:18 TRACK 14 AUDIO TITLE "Can't Nobody Do Me Like Jesus" PERFORMER "Rhiannon Giddens" REM COMPOSER "" ISRC USJ681711260 INDEX 00 39:32:07 INDEX 01 39:32:73 TRACK 15 AUDIO TITLE "Your Best (Acoustic Version)" PERFORMER "Lennon & Maisy" REM COMPOSER "" ISRC USJ681711070 INDEX 00 42:56:41 INDEX 01 42:56:47 TRACK 16 AUDIO TITLE "I'll Fly Away" PERFORMER "Jessie Early" REM COMPOSER "" ISRC USJ681711310 INDEX 00 45:29:32 INDEX 01 45:29:60
</div>
</div>
Доп. информация
<img class="smile" src="//static.t-ru.org/smiles/icon_question.gif" alt="">
[spoiler="Как разбить на треки? | Где взять в другом формате? [mp3, ALAC, и т.д.]"]Есть замечательная, отечественная программа xrecode II, которая работает под Microsoft Windows, Linux (через Wine), поддерживает многопоточность, при этом условно бесплатная. Режет на треки, собирает обратно, перепаковывает, сжимает во всё и вся, незаменима.[/spoiler]
<img class="smile" src="//static.t-ru.org/smiles/icon_exclaim.gif" alt=""> Данный материал предоставлен исключительно для ознакомления. Рекомендую приобрести лицензионную продукцию.

Трекер:  [ 27-Авг-2017 09:36 ]

  

Скачать .torrent

Размер .torrent файла 67 KB


Размер: 5.06 GB
Хэш (hash) релиза: 341063f639c844d56ad5123dacd44fe32eb4d3

Еще никто не оставлял запись к записи скачать торрент . Будь первым!

!Обратная связь