Security torrent

, , - AdBlock. #!


1 GB   |    :  29    |    .torrent :  2    |   
1  
   
...
 

Galfimbul

avatar Galfimbul


/ Security
,

5.355 / 10 5.70 / 10
: 2016
:
:
: 01:31:52

: (iTunes)
:
C:
:
: ,
: , ,
:
:
: , ,
: ,
: , , , , , , , , ,

: $15 000 000
: $32 212

: 4 2017
(): 3 2017,

: : . , , . : . . , . . -, . . , . : BDRemux
: BDRip
: SD (480p)
: M4V
: H.264, 640x358 852358, 2.40:1, 1 300 Kbps, 23.976 (24000/1001) fps

1: / (iTunes), AAC / 2.0 / 128 Kbps / 48.0 KHz
2: / , AAC / 2.0 / 128 Kbps / 48.0 KHz

:
Sort Name: Security
XID: Apple:vendor_id:2016-826986
contentID: 1245888652
Copyright: 2016 Universal Studios. All Rights Reserved.
Screenwriters: ,
Producers: , ,
Director:
Cast: , , , , , , , , ,
Studio: Universal Pictures
Rating Annotation: Rated R for violence and language.
Rating: 5
Long Description: : . , , . : . .
, . . -, . .
, .
Description: : . , , . : . ...
Release Date: 2017-03-04T08:00:00Z
Genre: Action & Adventure
Artist: Alain DesRochers
Name: Security
General
Complete name : /Users/imac/HandBrake/Security.(480p).(pk).m4v
Format : MPEG-4
Codec ID : M4V (M4V /M4A /mp42/isom)
File size : 1.00 GiB
Duration : 1h 31mn
Overall bit rate mode : Variable
Overall bit rate : 1 559 Kbps
Movie name : Security
Performer : Alain DesRochers
Director :
Actor : / / / / / / / / /
Screenplay by : /
Producer : / /
Production studio : Universal Pictures
Genre : Action & Adventure
ContentType : Short Film
Description : : . , , . : . ...
Recorded date : UTC 2017-03-04 08:00:00
Encoded date : UTC 2017-08-26 11:40:03
Tagged date : UTC 2017-08-26 11:41:22
Copyright : 2016 Universal Studios. All Rights Reserved.
Cover : Yes
Rating : None
Title/Sort : Security
LongDescription : : . , , . : . . / , . . -, . . / , .
AppleStoreCatalogID : 1245888652
Vendor : Apple:vendor_id:2016-826986
ContentRating : mpaa|R|400|Rated R for violence and language.

Video #1
ID : 1
Format : AVC
Format/Info : Advanced Video Codec
Format profile : Baseline@L3
Format settings, CABAC : No
Format settings, ReFrames : 2 frames
Codec ID : avc1
Codec ID/Info : Advanced Video Coding
Duration : 1h 31mn
Bit rate : 1 300 Kbps
Width : 640 pixels
Height : 358 pixels
Display aspect ratio : 2.40:1
Original display aspect ratio : 2.40:1
Frame rate mode : Variable
Frame rate : 23.976 (24000/1001) fps
Minimum frame rate : 23.974 fps
Maximum frame rate : 23.981 fps
Color space : YUV
Chroma subsampling : 4:2:0
Bit depth : 8 bits
Scan type : Progressive
Bits/(Pixel*Frame) : 0.237
Stream size : 853 MiB (83%)
Title : Main Program
Writing library : x264 core 148 r2708 86b7198
Encoding settings : cabac=0 / ref=2 / deblock=1:0:0 / analyse=0x1:0x111 / me=umh / subme=6 / psy=1 / psy_rd=1.00:0.00 / mixed_ref=1 / me_range=16 / chroma_me=1 / trellis=0 / 8x8dct=0 / cqm=0 / deadzone=21,11 / fast_pskip=1 / chroma_qp_offset=-2 / threads=11 / lookahead_threads=1 / sliced_threads=0 / nr=0 / decimate=1 / interlaced=0 / bluray_compat=0 / constrained_intra=0 / bframes=0 / weightp=0 / keyint=240 / keyint_min=24 / scenecut=40 / intra_refresh=0 / rc_lookahead=40 / rc=2pass / mbtree=1 / bitrate=1300 / ratetol=1.0 / qcomp=0.60 / qpmin=0 / qpmax=69 / qpstep=4 / cplxblur=20.0 / qblur=0.5 / vbv_maxrate=5000 / vbv_bufsize=5000 / nal_hrd=none / filler=0 / ip_ratio=1.40 / aq=1:1.00
Language : English
Encoded date : UTC 2017-08-26 11:40:03
Tagged date : UTC 2017-08-26 11:40:06
Color range : Limited
Color primaries : BT.709
Transfer characteristics : BT.709
Matrix coefficients : BT.709
Menus : 5,6

Video #2
ID : 6
Format : JPEG
Codec ID : jpeg
Duration : 1h 31mn
Bit rate mode : Variable
Bit rate : 217 bps
Width : 640 pixels
Height : 268 pixels
Display aspect ratio : 2.40:1
Frame rate mode : Variable
Frame rate : 0.001 fps
Minimum frame rate : 0.001 fps
Maximum frame rate : 0.004 fps
Color space : YUV
Chroma subsampling : 4:2:0
Bit depth : 8 bits
Compression mode : Lossy
Bits/(Pixel*Frame) : 1.265
Stream size : 212 KiB (0%)
Title : Chapter Images
Language : English
Default : No
Encoded date : UTC 2017-08-26 11:40:23
Tagged date : UTC 2017-08-26 11:40:23
Menu For : 1

Audio #1
ID : 2
Format : AAC
Format/Info : Advanced Audio Codec
Format profile : LC
Codec ID : 40
Duration : 1h 31mn
Bit rate mode : Variable
Bit rate : 127 Kbps
Maximum bit rate : 208 Kbps
Channel(s) : 2 channels
Channel positions : Front: L R
Sampling rate : 48.0 KHz
Frame rate : 46.875 fps (1024 SPF)
Compression mode : Lossy
Stream size : 83.1 MiB (8%)
Title : Russian Stereo
Language : Russian
Default : Yes
Alternate group : 1
Encoded date : UTC 2017-08-26 11:40:03
Tagged date : UTC 2017-08-26 11:40:22

Audio #2
ID : 3
Format : AAC
Format/Info : Advanced Audio Codec
Format profile : LC
Codec ID : 40
Duration : 1h 31mn
Bit rate mode : Variable
Bit rate : 126 Kbps
Maximum bit rate : 198 Kbps
Channel(s) : 2 channels
Channel positions : Front: L R
Sampling rate : 48.0 KHz
Frame rate : 46.875 fps (1024 SPF)
Compression mode : Lossy
Stream size : 83.0 MiB (8%)
Title : English Stereo
Language : English
Default : No
Alternate group : 1
Encoded date : UTC 2017-08-26 11:40:03
Tagged date : UTC 2017-08-26 11:40:22

Text
ID : 4
Format : Timed Text
Muxing mode : sbtl
Codec ID : tx3g
Duration : 1h 26mn
Bit rate mode : Variable
Bit rate : 49 bps
Stream size : 31.0 KiB (0%)
Title : English full
Language : English
Default : Yes
Forced : No
Alternate group : 2
Encoded date : UTC 2017-08-26 11:40:03
Tagged date : UTC 2017-08-26 11:40:19

Menu #1
00:00:00.000 : Chapter 1
00:17:03.105 : Chapter 2
00:29:17.256 : Chapter 3
00:39:59.397 : Chapter 4
00:53:49.101 : Chapter 5
01:06:05.253 : Chapter 6
01:18:38.339 : Chapter 7
01:27:49.848 : Chapter 8

Menu #2
ID : 5
Codec ID : text
Duration : 1h 31mn
Language : English
Encoded date : UTC 2017-08-26 11:40:22
Tagged date : UTC 2017-08-26 11:40:22
Bit rate mode : CBR
Menu For : 1
00:00:00.000 : Chapter 1
00:17:03.105 : Chapter 2
00:29:17.256 : Chapter 3
00:39:59.397 : Chapter 4
00:53:49.101 : Chapter 5
01:06:05.253 : Chapter 6
01:18:38.339 : Chapter 7
01:27:49.848 : Chapter 8
x264 [info]: frame I:2388 Avg QP:12.98 size: 26191
x264 [info]: frame P:129789 Avg QP:15.62 size: 6407
x264 [info]: mb I I16..4: 24.8% 0.0% 75.2%
x264 [info]: mb P I16..4: 1.3% 0.0% 3.0% P16..4: 43.7% 24.0% 9.4% 0.0% 0.0% skip:18.6%
x264 [info]: coded y,uvDC,uvAC intra: 69.8% 83.5% 70.9% inter: 22.4% 23.2% 8.3%
x264 [info]: i16 v,h,dc,p: 47% 14% 7% 32%
x264 [info]: i4 v,h,dc,ddl,ddr,vr,hd,vl,hu: 34% 16% 14% 6% 7% 8% 5% 6% 4%
x264 [info]: i8c dc,h,v,p: 49% 16% 26% 9%
x264 [info]: ref P L0: 69.6% 30.4%
x264 [info]: kb/s:1297.45
Apple TV, iPad, iPhone, iPod Touch.
Windows VLC media player

 ·  , , FAQ-
:  [ 26--2017 15:12 ]

  

.torrent

.torrent 20 KB


: 1 GB
(hash) : 1c3af47c04b41a3ec99d5868c02dad6ada0c5117
··
...

Security . !

!