[iPad] Security torrent

, , - AdBlock. #!


1.58 GB   |    :  29    |    .torrent :  13    |   
1  
   
...
 

Galfimbul

avatar Galfimbul


/ Security
,

5.355 / 10 5.70 / 10
: 2016
:
:
: 01:31:52

: (iTunes)
:
C:
:
: ,
: , ,
:
:
: , ,
: ,
: , , , , , , , , ,

: $15 000 000
: $32 212

: 4 2017
(): 3 2017,

: : . , , . : . . , . . -, . . , . : BDRemux
: BDRip
: SD (576p)
: M4V
: H.264, 1024x432, 2.40:1, 2 200 Kbps, 23.976 (24000/1001) fps

1: / (iTunes), AAC / 2.0 / 128 Kbps / 48.0 KHz
2: / , AAC / 2.0 / 128 Kbps / 48.0 KHz

:
Sort Name: Security
XID: Apple:vendor_id:2016-826986
contentID: 1245888652
Copyright: 2016 Universal Studios. All Rights Reserved.
Screenwriters: ,
Producers: , ,
Director:
Cast: , , , , , , , , ,
Studio: Universal Pictures
Rating Annotation: Rated R for violence and language.
Rating: 5
Long Description: : . , , . : . .
, . . -, . .
, .
Description: : . , , . : . ...
Release Date: 2017-03-04T08:00:00Z
Genre: Action & Adventure
Artist: Alain DesRochers
Name: Security
General
Complete name : /Users/imac/HandBrake/Security.(SD).(pk).m4v
Format : MPEG-4
Codec ID : M4V (M4V /M4A /mp42/isom)
File size : 1.58 GiB
Duration : 1h 31mn
Overall bit rate mode : Variable
Overall bit rate : 2 463 Kbps
Movie name : Security
Performer : Alain DesRochers
Director :
Actor : / / / / / / / / /
Screenplay by : /
Producer : / /
Production studio : Universal Pictures
Genre : Action & Adventure
ContentType : Short Film
Description : : . , , . : . ...
Recorded date : UTC 2017-03-04 08:00:00
Encoded date : UTC 2017-08-26 10:59:10
Tagged date : UTC 2017-08-26 11:00:45
Copyright : 2016 Universal Studios. All Rights Reserved.
Cover : Yes
Rating : None
Title/Sort : Security
LongDescription : : . , , . : . . / , . . -, . . / , .
AppleStoreCatalogID : 1245888652
Vendor : Apple:vendor_id:2016-826986
ContentRating : mpaa|R|400|Rated R for violence and language.

Video #1
ID : 1
Format : AVC
Format/Info : Advanced Video Codec
Format profile : High@L3.1
Format settings, CABAC : Yes
Format settings, ReFrames : 9 frames
Codec ID : avc1
Codec ID/Info : Advanced Video Coding
Duration : 1h 31mn
Source duration : 1h 31mn
Bit rate : 2 200 Kbps
Width : 1 024 pixels
Height : 432 pixels
Display aspect ratio : 2.40:1
Frame rate mode : Variable
Frame rate : 23.976 (24000/1001) fps
Minimum frame rate : 23.974 fps
Maximum frame rate : 23.981 fps
Color space : YUV
Chroma subsampling : 4:2:0
Bit depth : 8 bits
Scan type : Progressive
Bits/(Pixel*Frame) : 0.207
Stream size : 1.41 GiB (89%)
Source stream size : 1.41 GiB (89%)
Title : Main Program
Writing library : x264 core 148 r2708 86b7198
Encoding settings : cabac=1 / ref=9 / deblock=1:0:0 / analyse=0x3:0x113 / me=umh / subme=9 / psy=1 / psy_rd=1.00:0.00 / mixed_ref=1 / me_range=32 / chroma_me=1 / trellis=1 / 8x8dct=1 / cqm=0 / deadzone=21,11 / fast_pskip=1 / chroma_qp_offset=-2 / threads=13 / lookahead_threads=1 / sliced_threads=0 / nr=0 / decimate=1 / interlaced=0 / bluray_compat=0 / constrained_intra=0 / bframes=6 / b_pyramid=2 / b_adapt=2 / b_bias=0 / direct=1 / weightb=1 / open_gop=0 / weightp=2 / keyint=240 / keyint_min=24 / scenecut=40 / intra_refresh=0 / rc_lookahead=40 / rc=2pass / mbtree=1 / bitrate=2200 / ratetol=1.0 / qcomp=0.60 / qpmin=0 / qpmax=69 / qpstep=4 / cplxblur=20.0 / qblur=0.5 / ip_ratio=1.40 / aq=1:1.00
Language : English
Encoded date : UTC 2017-08-26 10:59:10
Tagged date : UTC 2017-08-26 10:59:15
Color range : Limited
Color primaries : BT.709
Transfer characteristics : BT.709
Matrix coefficients : BT.709
Menus : 5,6

Video #2
ID : 6
Format : JPEG
Codec ID : jpeg
Duration : 1h 31mn
Bit rate mode : Variable
Bit rate : 221 bps
Width : 640 pixels
Height : 270 pixels
Display aspect ratio : 2.40:1
Frame rate mode : Variable
Frame rate : 0.001 fps
Minimum frame rate : 0.001 fps
Maximum frame rate : 0.004 fps
Color space : YUV
Chroma subsampling : 4:2:0
Bit depth : 8 bits
Compression mode : Lossy
Bits/(Pixel*Frame) : 1.279
Stream size : 216 KiB (0%)
Title : Chapter Images
Language : English
Default : No
Encoded date : UTC 2017-08-26 10:59:19
Tagged date : UTC 2017-08-26 10:59:19
Menu For : 1

Audio #1
ID : 2
Format : AAC
Format/Info : Advanced Audio Codec
Format profile : LC
Codec ID : 40
Duration : 1h 31mn
Bit rate mode : Variable
Bit rate : 127 Kbps
Maximum bit rate : 208 Kbps
Channel(s) : 2 channels
Channel positions : Front: L R
Sampling rate : 48.0 KHz
Frame rate : 46.875 fps (1024 SPF)
Compression mode : Lossy
Stream size : 83.1 MiB (5%)
Title : Russian Stereo
Language : Russian
Default : Yes
Alternate group : 1
Encoded date : UTC 2017-08-26 10:59:10
Tagged date : UTC 2017-08-26 10:59:17

Audio #2
ID : 3
Format : AAC
Format/Info : Advanced Audio Codec
Format profile : LC
Codec ID : 40
Duration : 1h 31mn
Bit rate mode : Variable
Bit rate : 126 Kbps
Maximum bit rate : 198 Kbps
Channel(s) : 2 channels
Channel positions : Front: L R
Sampling rate : 48.0 KHz
Frame rate : 46.875 fps (1024 SPF)
Compression mode : Lossy
Stream size : 83.0 MiB (5%)
Title : English Stereo
Language : English
Default : No
Alternate group : 1
Encoded date : UTC 2017-08-26 10:59:10
Tagged date : UTC 2017-08-26 10:59:16

Text
ID : 4
Format : Timed Text
Muxing mode : sbtl
Codec ID : tx3g
Duration : 1h 26mn
Bit rate mode : Variable
Bit rate : 49 bps
Stream size : 31.0 KiB (0%)
Title : English full
Language : English
Default : Yes
Forced : No
Alternate group : 2
Encoded date : UTC 2017-08-26 10:59:10
Tagged date : UTC 2017-08-26 10:59:12

Menu #1
00:00:00.000 : Chapter 1
00:17:03.105 : Chapter 2
00:29:17.256 : Chapter 3
00:39:59.397 : Chapter 4
00:53:49.101 : Chapter 5
01:06:05.253 : Chapter 6
01:18:38.339 : Chapter 7
01:27:49.848 : Chapter 8

Menu #2
ID : 5
Codec ID : text
Duration : 1h 31mn
Language : English
Encoded date : UTC 2017-08-26 10:59:17
Tagged date : UTC 2017-08-26 10:59:17
Bit rate mode : CBR
Menu For : 1
00:00:00.000 : Chapter 1
00:17:03.105 : Chapter 2
00:29:17.256 : Chapter 3
00:39:59.397 : Chapter 4
00:53:49.101 : Chapter 5
01:06:05.253 : Chapter 6
01:18:38.339 : Chapter 7
01:27:49.848 : Chapter 8
x264 [info]: frame I:1382 Avg QP:10.58 size: 70513
x264 [info]: frame P:29805 Avg QP:13.85 size: 23377
x264 [info]: frame B:100990 Avg QP:15.33 size: 7154
x264 [info]: consecutive B-frames: 2.9% 3.8% 10.6% 14.0% 14.4% 46.4% 7.9%
x264 [info]: mb I I16..4: 11.0% 69.5% 19.5%
x264 [info]: mb P I16..4: 2.1% 9.3% 2.8% P16..4: 32.2% 27.5% 17.0% 0.0% 0.0% skip: 9.1%
x264 [info]: mb B I16..4: 0.2% 0.8% 0.4% B16..8: 37.2% 14.9% 4.1% direct: 4.4% skip:38.0% L0:46.7% L1:42.9% BI:10.4%
x264 [info]: 8x8 transform intra:64.9% inter:70.7%
x264 [info]: coded y,uvDC,uvAC intra: 82.7% 88.6% 77.5% inter: 25.9% 30.2% 11.0%
x264 [info]: i16 v,h,dc,p: 40% 15% 6% 39%
x264 [info]: i8 v,h,dc,ddl,ddr,vr,hd,vl,hu: 11% 10% 8% 9% 13% 13% 13% 12% 13%
x264 [info]: i4 v,h,dc,ddl,ddr,vr,hd,vl,hu: 9% 9% 3% 10% 16% 14% 14% 12% 14%
x264 [info]: i8c dc,h,v,p: 46% 22% 17% 14%
x264 [info]: Weighted P-Frames: Y:2.6% UV:1.7%
x264 [info]: ref P L0: 51.4% 7.1% 16.8% 7.3% 5.6% 4.1% 3.5% 2.0% 2.0% 0.1% 0.0%
x264 [info]: ref B L0: 70.1% 13.4% 7.0% 3.5% 2.5% 2.0% 1.2% 0.4%
x264 [info]: ref B L1: 93.1% 6.9%
x264 [info]: kb/s:2200.94
Apple TV, iPad, iPhone, iPod Touch.
Windows VLC media player

 ·  , , FAQ-
:  [ 26--2017 14:42 ]

  

.torrent

.torrent 32 KB


: 1.58 GB
(hash) : ee149f86ef5705e963035f3837c08e4c5b079c60
··
...

[iPad] Security . !

!