Скачать порно через торрент Saimin Jutsu Zero Гипноз: запретные развлечения UnionPeer.org бесплатно онлайн HD качество

Скачать новое порно 2015, 2014 новинки через торрент UnionPeer.org

Порно торрент бесплатно ЮнионПир.орг

Если у вас наблюдаются проблемы со скриншотами, переходом по ссылками, скачиванием торрентов - проблемы в блокировщике рекламы AdBlock. #хорошегоДня!


Статистика раздачи
Размер:  1.45 GB   |    Зарегистрирован:  25 дней   |    .torrent скачан:  956 раз   |   
Раздают:  14   Качают:  1  
   
Загрузка...
 
Автор Сообщение

Galfimbul

avatar Galfimbul


Saimin Jutsu Zero
催眠術ZERO
Гипноз: запретные развлечения

Год выпуска: 2013
Жанр: school, mind control, big breasts, oral sex, virgin, mastrubation, toys, group, pregpnant, naked basketball
Серии: ep. 1-2 of 2 + SP
Продолжительность: 2*22mn + 4mn30s
Цензура: Отсутствует

Озвучка: Японская оригинальная
Озвучка: Русская [VashMax2] любительская (одноголосая) внешняя
Субтитры: Русские [Vattok & торрент иваниваныч] внешние ASS
Субтитры: Английские [BD] встроенные отключаемые SUP, [EROBEAT_LQ], [SubDESU-H] внешние ASS
Субтитры: Китайские [Maho.sub] внешние ASS
Субтитры: Корейские внешние ASS

Режиссер: Shimizu Shin`ichi
Автор оригинала: Black Rainbow
Студия: Milky

Описание: И снова школьный доктор в главной роли. Естественно, ведь кто, как не школьный врач ближе всего с нежному девичьему телу. Но самое главное,что главный герой владеет специальной техникой гипноза,с помощью которой заставляет учениц творить самые развратные вещи. По большому счастью после того как эффект гипноза рассеваться девушки нечего не помнят, иначе бы умерли со стыда. По этому наш злой гений остаётся в тени, то и дело ищет себе новую жертву.Когда простые студентки начинают ему на скучивать он берётся за школьных знаменитостей и для них он приготовил кое что особенное.
© ХентайМаг (hentaimag.ru)

anidb

Доп. информация: Реальный naked basketball здесь.

Качество видео: BDrip [rickyhorror]
Разрешение видео: 1080p
Формат видео: MKV
Видео: 1920-1080, 16-9, 23.976 fps, AVC, 1883-3034 kbps
Аудио 1: jpn, FLAC, Stereo, 48.0 KHz, ~1400 kbps
Аудио 2: rus, AAC, Stereo, 48.0 KHz, 96 kbps
General
Unique ID : 228572396680242688346414979987786421246 (0xABF5713C0F34C6BD9D0FB60DA60FD3FE)
Complete name : Saimin_jutsu_zero_01_[UNCEN][BDrip][RH][4CDC58EF].mkv
Format : Matroska
Format version : Version 4 / Version 2
File size : 706 MiB
Duration : 22 min 22 s
Overall bit rate mode : Variable
Overall bit rate : 4 414 kb/s
Movie name : [RH] Saimin Jutsu Zero - 01 [Uncensored] [BDRip] [Hi10] [1080p]
Encoded date : UTC 2017-08-25 07:52:00
Writing application : mkvmerge v15.0.0 ('Duel with the Devil') 64-bit
Writing library : libebml v1.3.5 + libmatroska v1.4.5

Video
ID : 1
Format : AVC
Format/Info : Advanced Video Codec
Format profile : High 10@L5.2
Format settings, CABAC : Yes
Format settings, ReFrames : 16 frames
Codec ID : V_MPEG4/ISO/AVC
Duration : 22 min 22 s
Bit rate : 3 034 kb/s
Width : 1 920 pixels
Height : 1 080 pixels
Display aspect ratio : 16:9
Frame rate mode : Constant
Frame rate : 23.976 (24000/1001) FPS
Color space : YUV
Chroma subsampling : 4:2:0
Bit depth : 10 bits
Scan type : Progressive
Bits/(Pixel*Frame) : 0.061
Stream size : 485 MiB (69%)
Title : Hi10 1080p h.264
Writing library : x264 core 148
Encoding settings : cabac=1 / ref=16 / deblock=1:1:1 / analyse=0x3:0x133 / me=umh / subme=10 / psy=1 / psy_rd=0.40:0.00 / mixed_ref=1 / me_range=24 / chroma_me=1 / trellis=2 / 8x8dct=1 / cqm=0 / deadzone=21,11 / fast_pskip=1 / chroma_qp_offset=-2 / threads=9 / lookahead_threads=2 / sliced_threads=0 / nr=0 / decimate=1 / interlaced=0 / bluray_compat=0 / constrained_intra=0 / bframes=10 / b_pyramid=2 / b_adapt=2 / b_bias=0 / direct=3 / weightb=1 / open_gop=0 / weightp=2 / keyint=240 / keyint_min=24 / scenecut=40 / intra_refresh=0 / rc_lookahead=60 / rc=crf / mbtree=1 / crf=14.0 / qcomp=0.60 / qpmin=0 / qpmax=81 / qpstep=4 / vbv_maxrate=720000 / vbv_bufsize=720000 / crf_max=0.0 / nal_hrd=none / filler=0 / ip_ratio=1.40 / aq=1:0.60
Language : Japanese
Default : Yes
Forced : No
Color range : Limited
Color primaries : BT.709
Transfer characteristics : BT.709
Matrix coefficients : BT.709

Audio
ID : 2
Format : FLAC
Format/Info : Free Lossless Audio Codec
Codec ID : A_FLAC
Duration : 22 min 22 s
Bit rate mode : Variable
Bit rate : 1 365 kb/s
Channel(s) : 2 channels
Channel positions : Front: L R
Sampling rate : 48.0 kHz
Frame rate : 11.719 FPS (4096 spf)
Bit depth : 24 bits
Stream size : 218 MiB (31%)
Title : 2.0 FLAC
Writing library : libFLAC 1.3.1 (UTC 2014-11-25)
Language : Japanese
Default : Yes
Forced : No

Text
ID : 3
Format : PGS
Muxing mode : zlib
Codec ID : S_HDMV/PGS
Codec ID/Info : Picture based subtitle format used on BDs/HD-DVDs
Duration : 20 min 12 s
Bit rate : 52.4 kb/s
Count of elements : 488
Stream size : 7.58 MiB (1%)
Title : English
Language : English
Default : Yes
Forced : No

Menu
00:00:00.000 : en:Chapter 01
00:01:47.732 : en:Chapter 02
00:04:29.227 : en:Chapter 03
00:07:47.049 : en:Chapter 04
00:09:08.339 : en:Chapter 05
00:20:17.799 : en:Chapter 06
От vattok – без цензуры, там двдрип, здесь 1080p сайтрерип, только первая серия.


Трекер:  [ 26-Авг-2017 00:10 ]

  

Скачать .torrent

Размер .torrent файла 17 KB


Размер: 1.45 GB
Хэш (hash) релиза: 7d0343a7e74fc369c380105bdf74352c9084ef67

Торренты, похожие на Saimin Jutsu Zero Гипноз: запретные развлечения скачать торрент

Форум Название Автор Размер S L Добавлен
Хентай, порно и эротические мультфильмы ·· Saimin Jutsu Zero / Гипноз: запретные развлечения (Shimizu Shin`ichi, Milky) (ep. 1-2 of 2 + SP) [ptcen] [2013, school, mind control, oral sex, virgin, toys, group, pregpnant, naked basketball, DLversion] [jap / rus / eng / chi / kor] [1080p][480p] Galfimbul 694302286662 MB 0 0 1489493165

15:06

14-Мар-17

Хентай, порно и эротические мультфильмы ·· Saimin Jutsu Zero / Гипноз: запретные развлечения (Shimizu Shin`ichi, Milky) (ep. 1 of 2) [uncen] [2013, school, mind control, big breasts, oral sex, virgin, mastrubation, toys, group, pregpnant, naked basketball, DLversion] [jap / rus / eng] [1080p] Galfimbul 496385986473 MB 0 0 1488127131

19:38

26-Фев-17

Хентай | С цензурой ·· Saimin Jutsu Zero / Гипноз: запретные развлечения (SPECIAL) (Shimizu Shin`ichi, Milky) (ep. 1-2 of 2) [cen] [2013 г. school, Mind Control, big breasts, Oral sex, Virgin, mastrubation, toys, Group, Pregnant, DVDRip] [jap / eng / rus] Galfimbul 590585068563 MB 0 0 1397997877

15:44

20-Апр-14

Хентай | С цензурой ·· Saimin Jutsu Zero / Гипноз: запретные развлечения (Shimizu Shin`ichi, Milky) (ep. 1-2 of 2) [cen] [2013 г. school, Mind Control, big breasts, Oral sex, Virgin, mastrubation, toys, Group DVDRip] [jap] LinGr 492918514470 MB 0 0 1378846610

23:56

10-Сен-13

Еще никто не оставлял запись к записи скачать торрент Saimin Jutsu Zero Гипноз: запретные развлечения . Будь первым!

!Обратная связь