[iPad] Shot Caller torrent

, , - AdBlock. #!


2.07 GB   |    :  26    |    .torrent :  23    |   
1  
   
...
 

Galfimbul

avatar Galfimbul


/ Shot Caller


7.040 / 10 7.50 / 10
: 2017
:
: , ,
: 02:00:41

: (iTunes)
:
C:
:
:
: , ,
:
:
: , ,
:
: -, , , , , , , , ,

: $220 729

: 17 2017
(): 13 2017,

: , , , . , . , , ?.. : BDRemux
: BDRip
: SD (576p)
: M4V
: H.264, 1024x432, 2.40:1, 2 200 Kbps, 23.976 (24000/1001) fps

1: / (iTunes), AAC / 2.0 / 128 Kbps / 48.0 KHz
2: / , AAC / 2.0 / 128 Kbps / 48.0 KHz

:
Sort Name: Shot Caller
XID: Apple:vendor_id:2017-910353
contentID: 1240946641
Copyright: 2017 V V S Films
Screenwriters:
Producers: , ,
Director:
Cast: -, , , , , , , , , , , , , ,
Studio: V V S Films
Rating: 36
Long Description: , , ... , . , . , , ?..
Description: , , ... , . , . , , ?..
Release Date: 2017-06-17T08:00:00Z
Genre: Thriller
Artist: Ric Roman Waugh
Name: Shot Caller
General
Complete name : /Users/imac/HandBrake/Shot.Caller.(SD).(pk).m4v
Format : MPEG-4
Codec ID : M4V (M4V /M4A /mp42/isom)
File size : 2.07 GiB
Duration : 2h 0mn
Overall bit rate mode : Variable
Overall bit rate : 2 458 Kbps
Movie name : Shot Caller
Performer : Ric Roman Waugh
Director :
Actor : - / / / / / / / / / / / / / /
Screenplay by :
Producer : / /
Production studio : V V S Films
Genre : Thriller
ContentType : Short Film
Description : , , ... , . , . , , ?..
Recorded date : UTC 2017-06-17 08:00:00
Encoded date : UTC 2017-08-25 10:08:55
Tagged date : UTC 2017-08-25 10:09:42
Copyright : 2017 V V S Films
Cover : Yes
Rating : None
Title/Sort : Shot Caller
LongDescription : , , ... , . , . , , ?..
AppleStoreCatalogID : 1240946641
Vendor : Apple:vendor_id:2017-910353
ContentRating : ca-movie|14A|300|

Video #1
ID : 1
Format : AVC
Format/Info : Advanced Video Codec
Format profile : High@L3.1
Format settings, CABAC : Yes
Format settings, ReFrames : 9 frames
Codec ID : avc1
Codec ID/Info : Advanced Video Coding
Duration : 2h 0mn
Source duration : 2h 0mn
Bit rate : 2 200 Kbps
Width : 1 024 pixels
Height : 432 pixels
Display aspect ratio : 2.40:1
Frame rate mode : Variable
Frame rate : 23.976 (24000/1001) fps
Minimum frame rate : 23.974 fps
Maximum frame rate : 23.981 fps
Color space : YUV
Chroma subsampling : 4:2:0
Bit depth : 8 bits
Scan type : Progressive
Bits/(Pixel*Frame) : 0.207
Stream size : 1.85 GiB (89%)
Source stream size : 1.85 GiB (89%)
Title : Main Program
Writing library : x264 core 148 r2708 86b7198
Encoding settings : cabac=1 / ref=9 / deblock=1:0:0 / analyse=0x3:0x113 / me=umh / subme=9 / psy=1 / psy_rd=1.00:0.00 / mixed_ref=1 / me_range=32 / chroma_me=1 / trellis=1 / 8x8dct=1 / cqm=0 / deadzone=21,11 / fast_pskip=1 / chroma_qp_offset=-2 / threads=13 / lookahead_threads=1 / sliced_threads=0 / nr=0 / decimate=1 / interlaced=0 / bluray_compat=0 / constrained_intra=0 / bframes=6 / b_pyramid=2 / b_adapt=2 / b_bias=0 / direct=1 / weightb=1 / open_gop=0 / weightp=2 / keyint=240 / keyint_min=24 / scenecut=40 / intra_refresh=0 / rc_lookahead=40 / rc=2pass / mbtree=1 / bitrate=2200 / ratetol=1.0 / qcomp=0.60 / qpmin=0 / qpmax=69 / qpstep=4 / cplxblur=20.0 / qblur=0.5 / ip_ratio=1.40 / aq=1:1.00
Language : English
Encoded date : UTC 2017-08-25 10:08:55
Tagged date : UTC 2017-08-25 10:09:03
Color range : Limited
Color primaries : BT.709
Transfer characteristics : BT.709
Matrix coefficients : BT.709
Menus : 5,6

Video #2
ID : 6
Format : JPEG
Codec ID : jpeg
Duration : 2h 0mn
Bit rate mode : Variable
Bit rate : 272 bps
Width : 640 pixels
Height : 270 pixels
Display aspect ratio : 2.40:1
Frame rate mode : Variable
Frame rate : 0.001 fps
Minimum frame rate : 0.001 fps
Maximum frame rate : 0.003 fps
Color space : YUV
Chroma subsampling : 4:2:0
Bit depth : 8 bits
Compression mode : Lossy
Bits/(Pixel*Frame) : 1.574
Stream size : 265 KiB (0%)
Title : Chapter Images
Language : English
Default : No
Encoded date : UTC 2017-08-25 10:09:08
Tagged date : UTC 2017-08-25 10:09:09
Menu For : 1

Audio #1
ID : 2
Format : AAC
Format/Info : Advanced Audio Codec
Format profile : LC
Codec ID : 40
Duration : 2h 0mn
Bit rate mode : Variable
Bit rate : 125 Kbps
Maximum bit rate : 200 Kbps
Channel(s) : 2 channels
Channel positions : Front: L R
Sampling rate : 48.0 KHz
Frame rate : 46.875 fps (1024 SPF)
Compression mode : Lossy
Stream size : 108 MiB (5%)
Title : Russian Stereo
Language : Russian
Default : Yes
Alternate group : 1
Encoded date : UTC 2017-08-25 10:08:55
Tagged date : UTC 2017-08-25 10:09:06

Audio #2
ID : 3
Format : AAC
Format/Info : Advanced Audio Codec
Format profile : LC
Codec ID : 40
Duration : 2h 0mn
Bit rate mode : Variable
Bit rate : 126 Kbps
Maximum bit rate : 190 Kbps
Channel(s) : 2 channels
Channel positions : Front: L R
Sampling rate : 48.0 KHz
Frame rate : 46.875 fps (1024 SPF)
Compression mode : Lossy
Stream size : 109 MiB (5%)
Title : English Stereo
Language : English
Default : No
Alternate group : 1
Encoded date : UTC 2017-08-25 10:08:55
Tagged date : UTC 2017-08-25 10:09:06

Text
ID : 4
Format : Timed Text
Muxing mode : sbtl
Codec ID : tx3g
Duration : 1h 53mn
Bit rate mode : Variable
Bit rate : 51 bps
Stream size : 42.4 KiB (0%)
Title : English full
Language : English
Default : Yes
Forced : No
Alternate group : 2
Encoded date : UTC 2017-08-25 10:08:56
Tagged date : UTC 2017-08-25 10:08:58

Menu #1
00:00:00.000 : Chapter 1
00:22:10.621 : Chapter 2
00:35:14.571 : Chapter 3
00:53:05.224 : Chapter 4
01:06:42.040 : Chapter 5
01:22:27.359 : Chapter 6
01:40:29.482 : Chapter 7
01:54:37.454 : Chapter 8

Menu #2
ID : 5
Codec ID : text
Duration : 2h 0mn
Language : English
Encoded date : UTC 2017-08-25 10:09:06
Tagged date : UTC 2017-08-25 10:09:06
Bit rate mode : CBR
Menu For : 1
00:00:00.000 : Chapter 1
00:22:10.621 : Chapter 2
00:35:14.571 : Chapter 3
00:53:05.224 : Chapter 4
01:06:42.040 : Chapter 5
01:22:27.359 : Chapter 6
01:40:29.482 : Chapter 7
01:54:37.454 : Chapter 8
x264 [info]: frame I:1371 Avg QP:12.86 size: 68654
x264 [info]: frame P:38675 Avg QP:16.09 size: 23904
x264 [info]: frame B:133575 Avg QP:17.77 size: 7278
x264 [info]: consecutive B-frames: 2.8% 3.8% 8.3% 13.7% 17.3% 42.3% 11.8%
x264 [info]: mb I I16..4: 12.9% 67.9% 19.3%
x264 [info]: mb P I16..4: 1.7% 11.4% 2.2% P16..4: 34.7% 26.9% 14.9% 0.0% 0.0% skip: 8.2%
x264 [info]: mb B I16..4: 0.1% 1.1% 0.2% B16..8: 41.5% 12.2% 3.3% direct: 4.3% skip:37.3% L0:46.6% L1:45.4% BI: 8.0%
x264 [info]: 8x8 transform intra:74.7% inter:67.8%
x264 [info]: coded y,uvDC,uvAC intra: 88.5% 76.0% 48.8% inter: 28.5% 19.8% 2.2%
x264 [info]: i16 v,h,dc,p: 30% 13% 8% 49%
x264 [info]: i8 v,h,dc,ddl,ddr,vr,hd,vl,hu: 9% 8% 5% 11% 15% 14% 14% 12% 13%
x264 [info]: i4 v,h,dc,ddl,ddr,vr,hd,vl,hu: 10% 7% 3% 10% 16% 15% 14% 12% 13%
x264 [info]: i8c dc,h,v,p: 39% 26% 20% 16%
x264 [info]: Weighted P-Frames: Y:2.3% UV:1.3%
x264 [info]: ref P L0: 48.7% 9.5% 16.5% 7.0% 5.9% 4.1% 3.7% 2.1% 2.3% 0.1% 0.0%
x264 [info]: ref B L0: 71.9% 12.2% 6.5% 3.3% 2.4% 2.0% 1.2% 0.4%
x264 [info]: ref B L1: 93.8% 6.2%
x264 [info]: kb/s:2199.23
Apple TV, iPad, iPhone, iPod Touch.
Windows VLC media player

 ·  , , FAQ-
:  [ 25--2017 14:42 ]

  

.torrent

.torrent 21 KB


: 2.07 GB
(hash) : 39b911c142def47bb0ce606cea5af7a144f034fd
··
...

[iPad] Shot Caller . !

!