Shot Caller torrent

, , - AdBlock. #!


1.31 GB   |    :  2 26    |    .torrent :  20    |   
1  
   
...
 

Galfimbul

avatar Galfimbul


/ Shot Caller


7.040 / 10 7.50 / 10
: 2017
:
: , ,
: 02:00:41

: (iTunes)
:
C:
:
:
: , ,
:
:
: , ,
:
: -, , , , , , , , ,

: $220 729

: 17 2017
(): 13 2017,

: , , , . , . , , ?.. : BDRemux
: BDRip
: SD (480p)
: M4V
: H.264, 640x356 852356, 2.40:1, 1 300 Kbps, 23.976 (24000/1001) fps

1: / (iTunes), AAC / 2.0 / 128 Kbps / 48.0 KHz
2: / , AAC / 2.0 / 128 Kbps / 48.0 KHz

:
Sort Name: Shot Caller
XID: Apple:vendor_id:2017-910353
contentID: 1240946641
Copyright: 2017 V V S Films
Screenwriters:
Producers: , ,
Director:
Cast: -, , , , , , , , , , , , , ,
Studio: V V S Films
Rating: 36
Long Description: , , ... , . , . , , ?..
Description: , , ... , . , . , , ?..
Release Date: 2017-06-17T08:00:00Z
Genre: Thriller
Artist: Ric Roman Waugh
Name: Shot Caller
General
Complete name : /Users/imac/HandBrake/Shot.Caller.(480p).(pk).m4v
Format : MPEG-4
Codec ID : M4V (M4V /M4A /mp42/isom)
File size : 1.31 GiB
Duration : 2h 0mn
Overall bit rate mode : Variable
Overall bit rate : 1 555 Kbps
Movie name : Shot Caller
Performer : Ric Roman Waugh
Director :
Actor : - / / / / / / / / / / / / / /
Screenplay by :
Producer : / /
Production studio : V V S Films
Genre : Thriller
ContentType : Short Film
Description : , , ... , . , . , , ?..
Recorded date : UTC 2017-06-17 08:00:00
Encoded date : UTC 2017-08-25 11:22:22
Tagged date : UTC 2017-08-25 11:23:36
Copyright : 2017 V V S Films
Cover : Yes
Rating : None
Title/Sort : Shot Caller
LongDescription : , , ... , . , . , , ?..
AppleStoreCatalogID : 1240946641
Vendor : Apple:vendor_id:2017-910353
ContentRating : ca-movie|14A|300|

Video #1
ID : 1
Format : AVC
Format/Info : Advanced Video Codec
Format profile : Baseline@L3
Format settings, CABAC : No
Format settings, ReFrames : 2 frames
Codec ID : avc1
Codec ID/Info : Advanced Video Coding
Duration : 2h 0mn
Bit rate : 1 300 Kbps
Width : 640 pixels
Height : 356 pixels
Display aspect ratio : 2.40:1
Frame rate mode : Variable
Frame rate : 23.976 fps
Minimum frame rate : 11.995 fps
Maximum frame rate : 23.981 fps
Color space : YUV
Chroma subsampling : 4:2:0
Bit depth : 8 bits
Scan type : Progressive
Bits/(Pixel*Frame) : 0.238
Stream size : 1.09 GiB (83%)
Title : Main Program
Writing library : x264 core 148 r2708 86b7198
Encoding settings : cabac=0 / ref=2 / deblock=1:0:0 / analyse=0x1:0x111 / me=umh / subme=6 / psy=1 / psy_rd=1.00:0.00 / mixed_ref=1 / me_range=16 / chroma_me=1 / trellis=0 / 8x8dct=0 / cqm=0 / deadzone=21,11 / fast_pskip=1 / chroma_qp_offset=-2 / threads=11 / lookahead_threads=1 / sliced_threads=0 / nr=0 / decimate=1 / interlaced=0 / bluray_compat=0 / constrained_intra=0 / bframes=0 / weightp=0 / keyint=240 / keyint_min=24 / scenecut=40 / intra_refresh=0 / rc_lookahead=40 / rc=2pass / mbtree=1 / bitrate=1300 / ratetol=1.0 / qcomp=0.60 / qpmin=0 / qpmax=69 / qpstep=4 / cplxblur=20.0 / qblur=0.5 / vbv_maxrate=5000 / vbv_bufsize=5000 / nal_hrd=none / filler=0 / ip_ratio=1.40 / aq=1:1.00
Language : English
Encoded date : UTC 2017-08-25 11:22:22
Tagged date : UTC 2017-08-25 11:22:27
Color range : Limited
Color primaries : BT.709
Transfer characteristics : BT.709
Matrix coefficients : BT.709
Menus : 5,6

Video #2
ID : 6
Format : JPEG
Codec ID : jpeg
Duration : 2h 0mn
Bit rate mode : Variable
Bit rate : 255 bps
Width : 640 pixels
Height : 267 pixels
Display aspect ratio : 2.40:1
Frame rate mode : Variable
Frame rate : 0.001 fps
Minimum frame rate : 0.001 fps
Maximum frame rate : 0.003 fps
Color space : YUV
Chroma subsampling : 4:2:0
Bit depth : 8 bits
Compression mode : Lossy
Bits/(Pixel*Frame) : 1.492
Stream size : 250 KiB (0%)
Title : Chapter Images
Language : English
Default : No
Encoded date : UTC 2017-08-25 11:22:31
Tagged date : UTC 2017-08-25 11:22:31
Menu For : 1

Audio #1
ID : 2
Format : AAC
Format/Info : Advanced Audio Codec
Format profile : LC
Codec ID : 40
Duration : 2h 0mn
Bit rate mode : Variable
Bit rate : 125 Kbps
Maximum bit rate : 200 Kbps
Channel(s) : 2 channels
Channel positions : Front: L R
Sampling rate : 48.0 KHz
Frame rate : 46.875 fps (1024 SPF)
Compression mode : Lossy
Stream size : 108 MiB (8%)
Title : Russian Stereo
Language : Russian
Default : Yes
Alternate group : 1
Encoded date : UTC 2017-08-25 11:22:22
Tagged date : UTC 2017-08-25 11:22:29

Audio #2
ID : 3
Format : AAC
Format/Info : Advanced Audio Codec
Format profile : LC
Codec ID : 40
Duration : 2h 0mn
Bit rate mode : Variable
Bit rate : 126 Kbps
Maximum bit rate : 190 Kbps
Channel(s) : 2 channels
Channel positions : Front: L R
Sampling rate : 48.0 KHz
Frame rate : 46.875 fps (1024 SPF)
Compression mode : Lossy
Stream size : 109 MiB (8%)
Title : English Stereo
Language : English
Default : No
Alternate group : 1
Encoded date : UTC 2017-08-25 11:22:22
Tagged date : UTC 2017-08-25 11:22:29

Text
ID : 4
Format : Timed Text
Muxing mode : sbtl
Codec ID : tx3g
Duration : 1h 53mn
Bit rate mode : Variable
Bit rate : 51 bps
Stream size : 42.4 KiB (0%)
Title : English full
Language : English
Default : Yes
Forced : No
Alternate group : 2
Encoded date : UTC 2017-08-25 11:22:22
Tagged date : UTC 2017-08-25 11:22:29

Menu #1
00:00:00.000 : Chapter 1
00:22:10.621 : Chapter 2
00:35:14.571 : Chapter 3
00:53:05.224 : Chapter 4
01:06:42.040 : Chapter 5
01:22:27.359 : Chapter 6
01:40:29.482 : Chapter 7
01:54:37.454 : Chapter 8

Menu #2
ID : 5
Codec ID : text
Duration : 2h 0mn
Language : English
Encoded date : UTC 2017-08-25 11:22:29
Tagged date : UTC 2017-08-25 11:22:29
Bit rate mode : CBR
Menu For : 1
00:00:00.000 : Chapter 1
00:22:10.621 : Chapter 2
00:35:14.571 : Chapter 3
00:53:05.224 : Chapter 4
01:06:42.040 : Chapter 5
01:22:27.359 : Chapter 6
01:40:29.482 : Chapter 7
01:54:37.454 : Chapter 8
x264 [info]: frame I:2747 Avg QP:14.75 size: 24363
x264 [info]: frame P:170874 Avg QP:17.15 size: 6480
x264 [info]: mb I I16..4: 26.0% 0.0% 74.0%
x264 [info]: mb P I16..4: 1.0% 0.0% 3.1% P16..4: 45.8% 22.9% 8.7% 0.0% 0.0% skip:18.6%
x264 [info]: coded y,uvDC,uvAC intra: 68.9% 76.2% 52.2% inter: 25.7% 17.8% 3.7%
x264 [info]: i16 v,h,dc,p: 43% 12% 9% 36%
x264 [info]: i4 v,h,dc,ddl,ddr,vr,hd,vl,hu: 40% 12% 14% 5% 6% 7% 5% 6% 4%
x264 [info]: i8c dc,h,v,p: 48% 15% 29% 8%
x264 [info]: ref P L0: 71.6% 28.4%
x264 [info]: kb/s:1297.21
Apple TV, iPad, iPhone, iPod Touch.
Windows VLC media player

 ·  , , FAQ-
:  [ 25--2017 14:42 ]

  

.torrent

.torrent 26 KB


: 1.31 GB
(hash) : 3066ac7cc8a197ef2e33c9215725e70562a92bc8
··
...

Shot Caller . !

!