Security torrent

, , - AdBlock. #!


3.1 GB   |    :  3    |    .torrent :  13    |   
1  
   
...
 

Galfimbul

avatar Galfimbul


/ Security
,

5.355 / 10 5.70 / 10
: 2016
:
:
: 01:31:52

: (iTunes)
:
C:
:
: ,
: , ,
:
:
: , ,
: ,
: , , , , , , , , ,

: $15 000 000
: $32 212

: 4 2017
(): 3 2017,

: : . , , . : . . , . . -, . . , . : BDRemux (HDClub)
: BDRip
: HD (720p)
: M4V
: H.264, 1280x544, 2.35:1, 3 500 Kbps, 23.976 (24000/1001) fps

1: / (iTunes), AAC / 2.0 / 160 Kbps / 48.0 KHz
2: / , AAC / 2.0 / 160 Kbps / 48.0 KHz
3: / (iTunes), AC-3 / 5.1 / 384 Kbps / 48.0 KHz
4: / , AC-3 / 5.1 / 640 Kbps / 48.0 KHz

:
Sort Name: Security
XID: Apple:vendor_id:2016-826986
contentID: 1245888652
Copyright: 2016 Universal Studios. All Rights Reserved.
Screenwriters: ,
Producers: , ,
Director:
Cast: , , , , , , , , ,
Studio: Universal Pictures
Rating Annotation: Rated R for violence and language.
Rating: 5
Long Description: : . , , . : . .
, . . -, . .
, .
Description: : . , , . : . ...
Release Date: 2017-03-04T08:00:00Z
Genre: Action & Adventure
Artist: Alain DesRochers
Name: Security
General
Complete name : /Users/imac/HandBrake/Security (720p HD).m4v
Format : MPEG-4
Codec ID : M4V (M4V /M4A /mp42/isom)
File size : 3.10 GiB
Duration : 1h 31mn
Overall bit rate mode : Variable
Overall bit rate : 4 836 Kbps
Movie name : Security
Performer : Alain DesRochers
Director :
Actor : / / / / / / / / /
Screenplay by : /
Producer : / /
Production studio : Universal Pictures
Genre : Action & Adventure
ContentType : Short Film
Description : : . , , . : . ...
Recorded date : UTC 2017-03-04 08:00:00
Encoded date : UTC 2017-08-24 11:02:47
Tagged date : UTC 2017-08-24 11:04:48
Copyright : 2016 Universal Studios. All Rights Reserved.
Cover : Yes
Rating : None
Title/Sort : Security
LongDescription : : . , , . : . . / , . . -, . . / , .
HDVideo : Yes
AppleStoreCatalogID : 1245888652
Vendor : Apple:vendor_id:2016-826986
ContentRating : mpaa|R|400|Rated R for violence and language.

Video #1
ID : 1
Format : AVC
Format/Info : Advanced Video Codec
Format profile : High@L3.1
Format settings, CABAC : No
Format settings, ReFrames : 3 frames
Codec ID : avc1
Codec ID/Info : Advanced Video Coding
Duration : 1h 31mn
Source duration : 1h 31mn
Bit rate : 3 500 Kbps
Width : 1 280 pixels
Height : 544 pixels
Display aspect ratio : 2.35:1
Frame rate mode : Variable
Frame rate : 23.976 (24000/1001) fps
Minimum frame rate : 23.974 fps
Maximum frame rate : 23.981 fps
Color space : YUV
Chroma subsampling : 4:2:0
Bit depth : 8 bits
Scan type : Progressive
Bits/(Pixel*Frame) : 0.210
Stream size : 2.24 GiB (72%)
Source stream size : 2.24 GiB (72%)
Title : Main Program
Writing library : x264 core 148 r2708 86b7198
Encoding settings : cabac=0 / ref=3 / deblock=1:-3:-3 / analyse=0x3:0x113 / me=umh / subme=9 / psy=1 / psy_rd=1.00:0.15 / mixed_ref=1 / me_range=32 / chroma_me=1 / trellis=0 / 8x8dct=1 / cqm=0 / deadzone=21,11 / fast_pskip=0 / chroma_qp_offset=-2 / threads=17 / lookahead_threads=1 / sliced_threads=0 / nr=0 / decimate=0 / interlaced=0 / bluray_compat=0 / constrained_intra=0 / bframes=3 / b_pyramid=0 / b_adapt=2 / b_bias=0 / direct=1 / weightb=0 / open_gop=0 / weightp=0 / keyint=240 / keyint_min=24 / scenecut=40 / intra_refresh=0 / rc_lookahead=40 / rc=2pass / mbtree=1 / bitrate=3500 / ratetol=1.0 / qcomp=0.65 / qpmin=0 / qpmax=69 / qpstep=4 / cplxblur=20.0 / qblur=0.5 / vbv_maxrate=9500 / vbv_bufsize=9500 / nal_hrd=none / filler=0 / ip_ratio=1.40 / aq=1:1.10
Language : English
Encoded date : UTC 2017-08-24 11:02:47
Tagged date : UTC 2017-08-24 11:02:55
Color range : Limited
Color primaries : BT.709
Transfer characteristics : BT.709
Matrix coefficients : BT.709
Menus : 7,8

Video #2
ID : 8
Format : JPEG
Codec ID : jpeg
Duration : 1h 31mn
Bit rate mode : Variable
Bit rate : 222 bps
Width : 640 pixels
Height : 272 pixels
Display aspect ratio : 2.35:1
Frame rate mode : Variable
Frame rate : 0.001 fps
Minimum frame rate : 0.001 fps
Maximum frame rate : 0.004 fps
Color space : YUV
Chroma subsampling : 4:2:0
Bit depth : 8 bits
Compression mode : Lossy
Bits/(Pixel*Frame) : 1.275
Stream size : 216 KiB (0%)
Title : Chapter Images
Language : English
Default : No
Encoded date : UTC 2017-08-24 11:02:59
Tagged date : UTC 2017-08-24 11:03:00
Menu For : 1

Audio #1
ID : 2
Format : AAC
Format/Info : Advanced Audio Codec
Format profile : LC
Codec ID : 40
Duration : 1h 31mn
Bit rate mode : Variable
Bit rate : 158 Kbps
Maximum bit rate : 247 Kbps
Channel(s) : 2 channels
Channel positions : Front: L R
Sampling rate : 48.0 KHz
Frame rate : 46.875 fps (1024 SPF)
Compression mode : Lossy
Stream size : 104 MiB (3%)
Title : Russian Stereo
Language : Russian
Default : Yes
Alternate group : 1
Encoded date : UTC 2017-08-24 11:02:47
Tagged date : UTC 2017-08-24 11:02:57
Fallback From : 4

Audio #2
ID : 3
Format : AAC
Format/Info : Advanced Audio Codec
Format profile : LC
Codec ID : 40
Duration : 1h 31mn
Bit rate mode : Variable
Bit rate : 158 Kbps
Maximum bit rate : 251 Kbps
Channel(s) : 2 channels
Channel positions : Front: L R
Sampling rate : 48.0 KHz
Frame rate : 46.875 fps (1024 SPF)
Compression mode : Lossy
Stream size : 104 MiB (3%)
Title : English Stereo
Language : English
Default : No
Alternate group : 1
Encoded date : UTC 2017-08-24 11:02:47
Tagged date : UTC 2017-08-24 11:02:57
Fallback From : 5

Audio #3
ID : 4
Format : AC-3
Format/Info : Audio Coding 3
Format settings, Endianness : Big
Codec ID : ac-3
Duration : 1h 31mn
Bit rate mode : Constant
Bit rate : 384 Kbps
Channel(s) : 6 channels
Channel positions : Front: L C R, Side: L R, LFE
Sampling rate : 48.0 KHz
Frame rate : 31.250 fps (1536 SPF)
Bit depth : 16 bits
Compression mode : Lossy
Stream size : 252 MiB (8%)
Title : Russian DD 5.1
Language : Russian
Service kind : Complete Main
Default : Inherited From: 2
Alternate group : 1
Encoded date : UTC 2017-08-24 11:02:47
Tagged date : UTC 2017-08-24 11:02:57
Fallback To : 2

Audio #4
ID : 5
Format : AC-3
Format/Info : Audio Coding 3
Format settings, Endianness : Big
Codec ID : ac-3
Duration : 1h 31mn
Bit rate mode : Constant
Bit rate : 640 Kbps
Channel(s) : 6 channels
Channel positions : Front: L C R, Side: L R, LFE
Sampling rate : 48.0 KHz
Frame rate : 31.250 fps (1536 SPF)
Bit depth : 16 bits
Compression mode : Lossy
Stream size : 421 MiB (13%)
Title : English DD 5.1
Language : English
Service kind : Complete Main
Default : No
Alternate group : 1
Encoded date : UTC 2017-08-24 11:02:47
Tagged date : UTC 2017-08-24 11:02:57
Fallback To : 3

Text
ID : 6
Format : Timed Text
Muxing mode : sbtl
Codec ID : tx3g
Duration : 1h 26mn
Bit rate mode : Variable
Bit rate : 49 bps
Stream size : 31.0 KiB (0%)
Title : English full
Language : English
Default : Yes
Forced : No
Alternate group : 2
Encoded date : UTC 2017-08-24 11:02:47
Tagged date : UTC 2017-08-24 11:02:56

Menu #1
00:00:00.000 : Chapter 1
00:17:03.105 : Chapter 2
00:29:17.256 : Chapter 3
00:39:59.397 : Chapter 4
00:53:49.101 : Chapter 5
01:06:05.253 : Chapter 6
01:18:38.339 : Chapter 7
01:27:49.848 : Chapter 8

Menu #2
ID : 7
Codec ID : text
Duration : 1h 31mn
Language : English
Encoded date : UTC 2017-08-24 11:02:57
Tagged date : UTC 2017-08-24 11:02:57
Bit rate mode : CBR
Menu For : 1
00:00:00.000 : Chapter 1
00:17:03.105 : Chapter 2
00:29:17.256 : Chapter 3
00:39:59.397 : Chapter 4
00:53:49.101 : Chapter 5
01:06:05.253 : Chapter 6
01:18:38.339 : Chapter 7
01:27:49.848 : Chapter 8
x264 [info]: frame I:1500 Avg QP:12.20 size: 90767
x264 [info]: frame P:47227 Avg QP:15.09 size: 31898
x264 [info]: frame B:83450 Avg QP:15.85 size: 9102
x264 [info]: consecutive B-frames: 4.1% 19.9% 45.3% 30.6%
x264 [info]: mb I I16..4: 9.9% 61.0% 29.2%
x264 [info]: mb P I16..4: 2.5% 6.3% 2.8% P16..4: 42.0% 28.6% 11.1% 0.0% 0.0% skip: 6.8%
x264 [info]: mb B I16..4: 0.3% 0.6% 0.3% B16..8: 45.9% 16.0% 2.1% direct: 4.1% skip:30.7% L0:43.5% L1:50.3% BI: 6.3%
x264 [info]: 8x8 transform intra:55.6% inter:41.6%
x264 [info]: coded y,uvDC,uvAC intra: 79.0% 84.8% 72.5% inter: 22.0% 29.5% 19.6%
x264 [info]: i16 v,h,dc,p: 54% 13% 6% 27%
x264 [info]: i8 v,h,dc,ddl,ddr,vr,hd,vl,hu: 8% 8% 8% 11% 15% 14% 14% 11% 11%
x264 [info]: i4 v,h,dc,ddl,ddr,vr,hd,vl,hu: 8% 9% 4% 13% 18% 15% 14% 10% 9%
x264 [info]: i8c dc,h,v,p: 55% 17% 18% 11%
x264 [info]: ref P L0: 68.2% 18.8% 13.1%
x264 [info]: ref B L0: 77.1% 22.9%
x264 [info]: kb/s:3485.91
Apple TV, iPad, iPhone, iPod Touch.
Windows VLC media player

 ·  , , FAQ-
:  [ 24--2017 14:42 ]

  

.torrent

.torrent 31 KB


: 3.1 GB
(hash) : ee1b2a0845ca91fb9e357468a53440d2bf431c9e
··
...

Security . !

!