[ATV3] Security torrent

, , - AdBlock. #!


6 GB   |    :  3    |    .torrent :  10    |   
1  
   
...
 

Galfimbul

avatar Galfimbul


/ Security
,

5.355 / 10 5.70 / 10
: 2016
:
:
: 01:31:52

: (iTunes)
:
C:
:
: ,
: , ,
:
:
: , ,
: ,
: , , , , , , , , ,

: $15 000 000
: $32 212

: 4 2017
(): 3 2017,

: : . , , . : . .
, . . -, . .
, . : BDRemux (HDClub)
: BDRip
: HD (1080p)
: M4V
: H.264, 1920x800, 2.40:1, 8 000 Kbps, 23.976 (24000/1001) fps

1: / (iTunes), AAC / 2.0 / 160 Kbps / 48.0 KHz
2: / , AAC / 2.0 / 160 Kbps / 48.0 KHz
3: / (iTunes), AC-3 / 5.1 / 384 Kbps / 48.0 KHz
4: / , AC-3 / 5.1 / 640 Kbps / 48.0 KHz

:
Sort Name: Security
XID: Apple:vendor_id:2016-826986
contentID: 1245888652
Copyright: 2016 Universal Studios. All Rights Reserved.
Screenwriters: ,
Producers: , ,
Director:
Cast: , , , , , , , , ,
Studio: Universal Pictures
Rating Annotation: Rated R for violence and language.
Rating: 5
Long Description: : . , , . : . .
, . . -, . .
, .
Description: : . , , . : . ...
Release Date: 2017-03-04T08:00:00Z
Genre: Action & Adventure
Artist: Alain DesRochers
Name: Security
General
Complete name : /Users/imac/HandBrake/Security (1080p HD).m4v
Format : MPEG-4
Codec ID : M4V (M4V /M4A /mp42/isom)
File size : 6.00 GiB
Duration : 1h 31mn
Overall bit rate mode : Variable
Overall bit rate : 9 346 Kbps
Movie name : Security
Performer : Alain DesRochers
Director :
Actor : / / / / / / / / /
Screenplay by : /
Producer : / /
Production studio : Universal Pictures
Genre : Action & Adventure
ContentType : Short Film
Description : : . , , . : . ...
Recorded date : UTC 2017-03-04 08:00:00
Encoded date : UTC 2017-08-24 09:32:41
Tagged date : UTC 2017-08-24 09:34:59
Copyright : 2016 Universal Studios. All Rights Reserved.
Cover : Yes
Rating : None
Title/Sort : Security
LongDescription : : . , , . : . . / , . . -, . . / , .
AppleStoreCatalogID : 1245888652
Vendor : Apple:vendor_id:2016-826986
ContentRating : mpaa|R|400|Rated R for violence and language.

Video #1
ID : 1
Format : AVC
Format/Info : Advanced Video Codec
Format profile : High@L4
Format settings, CABAC : Yes
Format settings, ReFrames : 4 frames
Codec ID : avc1
Codec ID/Info : Advanced Video Coding
Duration : 1h 31mn
Source duration : 1h 31mn
Bit rate : 8 000 Kbps
Width : 1 920 pixels
Height : 800 pixels
Display aspect ratio : 2.40:1
Frame rate mode : Variable
Frame rate : 23.976 (24000/1001) fps
Minimum frame rate : 23.974 fps
Maximum frame rate : 23.981 fps
Color space : YUV
Chroma subsampling : 4:2:0
Bit depth : 8 bits
Scan type : Progressive
Bits/(Pixel*Frame) : 0.217
Stream size : 5.13 GiB (86%)
Source stream size : 5.13 GiB (86%)
Title : Main Program
Writing library : x264 core 148 r2708 86b7198
Encoding settings : cabac=1 / ref=4 / deblock=1:-2:-2 / analyse=0x3:0x133 / me=umh / subme=10 / psy=1 / psy_rd=1.00:0.15 / mixed_ref=1 / me_range=32 / chroma_me=1 / trellis=2 / 8x8dct=1 / cqm=0 / deadzone=21,11 / fast_pskip=1 / chroma_qp_offset=-3 / threads=25 / lookahead_threads=6 / sliced_threads=0 / nr=0 / decimate=0 / interlaced=0 / bluray_compat=0 / constrained_intra=0 / bframes=16 / b_pyramid=2 / b_adapt=2 / b_bias=0 / direct=3 / weightb=1 / open_gop=0 / weightp=2 / keyint=240 / keyint_min=24 / scenecut=40 / intra_refresh=0 / rc_lookahead=40 / rc=2pass / mbtree=1 / bitrate=8000 / ratetol=1.0 / qcomp=0.70 / qpmin=0 / qpmax=69 / qpstep=4 / cplxblur=20.0 / qblur=0.5 / ip_ratio=1.40 / aq=1:1.00
Language : English
Encoded date : UTC 2017-08-24 09:32:41
Tagged date : UTC 2017-08-24 09:32:55
Color range : Limited
Color primaries : BT.709
Transfer characteristics : BT.709
Matrix coefficients : BT.709
Menus : 7,8

Video #2
ID : 8
Format : JPEG
Codec ID : jpeg
Duration : 1h 31mn
Bit rate mode : Variable
Bit rate : 219 bps
Width : 640 pixels
Height : 266 pixels
Display aspect ratio : 2.40:1
Frame rate mode : Variable
Frame rate : 0.001 fps
Minimum frame rate : 0.001 fps
Maximum frame rate : 0.004 fps
Color space : YUV
Chroma subsampling : 4:2:0
Bit depth : 8 bits
Compression mode : Lossy
Bits/(Pixel*Frame) : 1.286
Stream size : 214 KiB (0%)
Title : Chapter Images
Language : English
Default : No
Encoded date : UTC 2017-08-24 09:32:58
Tagged date : UTC 2017-08-24 09:32:59
Menu For : 1

Audio #1
ID : 2
Format : AAC
Format/Info : Advanced Audio Codec
Format profile : LC
Codec ID : 40
Duration : 1h 31mn
Bit rate mode : Variable
Bit rate : 158 Kbps
Maximum bit rate : 247 Kbps
Channel(s) : 2 channels
Channel positions : Front: L R
Sampling rate : 48.0 KHz
Frame rate : 46.875 fps (1024 SPF)
Compression mode : Lossy
Stream size : 104 MiB (2%)
Title : Russian Stereo
Language : Russian
Default : Yes
Alternate group : 1
Encoded date : UTC 2017-08-24 09:32:41
Tagged date : UTC 2017-08-24 09:32:49
Fallback From : 4
Menus : 7

Audio #2
ID : 3
Format : AAC
Format/Info : Advanced Audio Codec
Format profile : LC
Codec ID : 40
Duration : 1h 31mn
Bit rate mode : Variable
Bit rate : 158 Kbps
Maximum bit rate : 251 Kbps
Channel(s) : 2 channels
Channel positions : Front: L R
Sampling rate : 48.0 KHz
Frame rate : 46.875 fps (1024 SPF)
Compression mode : Lossy
Stream size : 104 MiB (2%)
Title : English Stereo
Language : English
Default : No
Alternate group : 1
Encoded date : UTC 2017-08-24 09:32:41
Tagged date : UTC 2017-08-24 09:32:49
Fallback From : 5

Audio #3
ID : 4
Format : AC-3
Format/Info : Audio Coding 3
Format settings, Endianness : Big
Codec ID : ac-3
Duration : 1h 31mn
Bit rate mode : Constant
Bit rate : 384 Kbps
Channel(s) : 6 channels
Channel positions : Front: L C R, Side: L R, LFE
Sampling rate : 48.0 KHz
Frame rate : 31.250 fps (1536 SPF)
Bit depth : 16 bits
Compression mode : Lossy
Stream size : 252 MiB (4%)
Title : Russian DD 5.1
Language : Russian
Service kind : Complete Main
Default : Inherited From: 2
Alternate group : 1
Encoded date : UTC 2017-08-24 09:32:41
Tagged date : UTC 2017-08-24 09:32:47
Fallback To : 2

Audio #4
ID : 5
Format : AC-3
Format/Info : Audio Coding 3
Format settings, Endianness : Big
Codec ID : ac-3
Duration : 1h 31mn
Bit rate mode : Constant
Bit rate : 640 Kbps
Channel(s) : 6 channels
Channel positions : Front: L C R, Side: L R, LFE
Sampling rate : 48.0 KHz
Frame rate : 31.250 fps (1536 SPF)
Bit depth : 16 bits
Compression mode : Lossy
Stream size : 421 MiB (7%)
Title : English DD 5.1
Language : English
Service kind : Complete Main
Default : No
Alternate group : 1
Encoded date : UTC 2017-08-24 09:32:41
Tagged date : UTC 2017-08-24 09:32:47
Fallback To : 3

Text
ID : 6
Format : Timed Text
Muxing mode : sbtl
Codec ID : tx3g
Duration : 1h 26mn
Bit rate mode : Variable
Bit rate : 49 bps
Stream size : 31.0 KiB (0%)
Title : English full
Language : English
Default : Yes
Forced : No
Alternate group : 2
Encoded date : UTC 2017-08-24 09:32:41
Tagged date : UTC 2017-08-24 09:32:41

Menu #1
00:00:00.000 : Chapter 1
00:17:03.105 : Chapter 2
00:29:17.256 : Chapter 3
00:39:59.397 : Chapter 4
00:53:49.101 : Chapter 5
01:06:05.253 : Chapter 6
01:18:38.339 : Chapter 7
01:27:49.848 : Chapter 8

Menu #2
ID : 7
Codec ID : text
Duration : 1h 31mn
Language : English
Encoded date : UTC 2017-08-24 09:32:55
Tagged date : UTC 2017-08-24 09:32:55
Bit rate mode : CBR
Menu For : 2,1
00:00:00.000 : Chapter 1
00:17:03.105 : Chapter 2
00:29:17.256 : Chapter 3
00:39:59.397 : Chapter 4
00:53:49.101 : Chapter 5
01:06:05.253 : Chapter 6
01:18:38.339 : Chapter 7
01:27:49.848 : Chapter 8
x264 [info]: frame I:868 Avg QP:13.44 size:184709
x264 [info]: frame P:30724 Avg QP:16.73 size: 70185
x264 [info]: frame B:100585 Avg QP:16.85 size: 31750
x264 [info]: consecutive B-frames: 3.4% 6.3% 9.7% 8.7% 8.1% 57.5% 2.8% 0.3% 1.3% 0.2% 0.4% 0.7% 0.2% 0.1% 0.1% 0.1% 0.1%
x264 [info]: mb I I16..4: 16.6% 68.6% 14.8%
x264 [info]: mb P I16..4: 3.4% 16.1% 1.4% P16..4: 38.0% 21.0% 10.5% 0.3% 0.1% skip: 9.2%
x264 [info]: mb B I16..4: 0.4% 1.5% 0.1% B16..8: 42.8% 14.9% 3.5% direct: 7.6% skip:29.1% L0:46.7% L1:42.9% BI:10.4%
x264 [info]: 8x8 transform intra:75.8% inter:56.6%
x264 [info]: direct mvs spatial:97.3% temporal:2.7%
x264 [info]: coded y,uvDC,uvAC intra: 82.0% 85.2% 72.4% inter: 30.3% 40.3% 21.9%
x264 [info]: i16 v,h,dc,p: 45% 13% 15% 28%
x264 [info]: i8 v,h,dc,ddl,ddr,vr,hd,vl,hu: 8% 8% 12% 10% 13% 12% 13% 11% 13%
x264 [info]: i4 v,h,dc,ddl,ddr,vr,hd,vl,hu: 9% 10% 5% 10% 15% 14% 14% 11% 13%
x264 [info]: i8c dc,h,v,p: 52% 20% 15% 13%
x264 [info]: Weighted P-Frames: Y:1.9% UV:1.4%
x264 [info]: ref P L0: 53.5% 7.2% 26.5% 12.1% 0.7% 0.0%
x264 [info]: ref B L0: 82.0% 14.9% 3.1%
x264 [info]: ref B L1: 92.9% 7.1%
x264 [info]: kb/s:7996.23
Apple TV, iPad, iPhone, iPod Touch.
Windows VLC media player

 ·  , , FAQ-
:  [ 24--2017 13:12 ]

  

.torrent

.torrent 60 KB


: 6 GB
(hash) : a8f178279170150ff03e1eebb4de9085a3a0795d
··
...

[ATV3] Security . !

!