Скачать через торрент музыку Гений Genius бесплатно без регистрации torrent

Если у вас наблюдаются проблемы со скриншотами, переходом по ссылками, скачиванием торрентов - проблемы в блокировщике рекламы AdBlock. #хорошегоДня!


Статистика раздачи
Размер:  409 MB   |    Зарегистрирован:  28 дней   |    .torrent скачан:  3 раза   |   
Раздают:  1  
   
Загрузка...
 
Автор Сообщение

Galfimbul

avatar Galfimbul


Гений / Genius Жанр: Score || Композитор: Hans Zimmer & Lorne Balfe || Год выпуска диска: 2017 || Страна-производитель диска: США || Аудио кодек: FLAC (*.flac) || Тип рипа: tracks+.cue || Битрейт аудио: lossless || Продолжительность: 00:53:01 || Источник: Redacted || Наличие сканов в содержимом раздачи: да

Треклист:
01. Truth, Goodness and Beauty [03:53]
02. A Powerful Mind [04:37]
03. Solitude [02:55]
04. Pure Mathematics [02:26]
05. In Love With The Mind [02:56]
06. Discoveries [03:39]
07. Time Is But A Stubborn Illusion [05:43]
08. Solutions [01:50]
09. Patriotic [04:00]
10. Noble Thoughts and Deeds [03:24]
11. Memory Is Deceptive [03:22]
12. Never Stop Questioning [02:15]
13. Man of Value [02:17]
14. Imagination [01:44]
15. Universe [02:42]
16. Father and Son [01:53]
17. Everybody Is A Genius [02:32]
18. Genius [00:51]
Exact Audio Copy V1.1 from 23. June 2015

EAC extraction logfile from 21. August 2017, 12:39

Lorne Balfe / Genius (National Geographic Original Series Soundtrack)

Used drive : slimtype eTDU108 1 Adapter: 1 ID: 0

Read mode : SecureUtilize accurate stream : YesDefeat audio cache : YesMake use of C2 pointers : No

Read offset correction : 6Overread into Lead-In and Lead-Out : NoFill up missing offset samples with silence : YesDelete leading and trailing silent blocks : NoNull samples used in CRC calculations : YesUsed interface : Native Win32 interface for Win NT & 2000Gap handling : Appended to previous track

Used output format : User Defined EncoderSelected bitrate : 1024 kBit/sQuality : HighAdd ID3 tag : NoCommand line compressor : C:\Program Files (x86)\Exact Audio Copy\FLAC\FLAC.EXEAdditional command line options : -6 -V -T "ARTIST=%artist%" -T "TITLE=%title%" -T "ALBUM=%albumtitle%" -T "DATE=%year%" -T "TRACKNUMBER=%tracknr%" -T "GENRE=%genre%" -T "COMMENT=%comment%" -T "BAND=%albuminterpret%" -T "ALBUMARTIST=%albuminterpret%" -T "COMPOSER=%composer%" %haslyrics%--tag-from-file=LYRICS="%lyricsfile%"%haslyrics% -T "DISCNUMBER=%cdnumber%" -T "TOTALDISCS=%totalcds%" -T "TOTALTRACKS=%numtracks%" %hascover%--picture="%coverfile%"%hascover% %source% -o %dest%

TOC of the extracted CD

Track | Start | Length | Start sector | End sector --------------------------------------------------------- 1 | 0:00.00 | 3:53.21 | 0 | 17495 2 | 3:53.21 | 4:37.34 | 17496 | 38304 3 | 8:30.55 | 2:55.06 | 38305 | 51435 4 | 11:25.61 | 2:26.35 | 51436 | 62420 5 | 13:52.21 | 2:56.35 | 62421 | 75655 6 | 16:48.56 | 3:39.03 | 75656 | 92083 7 | 20:27.59 | 5:43.35 | 92084 | 117843 8 | 26:11.19 | 1:50.23 | 117844 | 126116 9 | 28:01.42 | 3:59.58 | 126117 | 144099 10 | 32:01.25 | 3:23.62 | 144100 | 159386 11 | 35:25.12 | 3:22.25 | 159387 | 174561 12 | 38:47.37 | 2:14.72 | 174562 | 184683 13 | 41:02.34 | 2:16.44 | 184684 | 194927 14 | 43:19.03 | 1:43.73 | 194928 | 202725 15 | 45:03.01 | 2:42.04 | 202726 | 214879 16 | 47:45.05 | 1:53.12 | 214880 | 223366 17 | 49:38.17 | 2:31.62 | 223367 | 234753 18 | 52:10.04 | 0:51.25 | 234754 | 238603

Track 1

Filename D:\My Music\barca008\Lorne Balfe - Genius (National Geographic Original Series Soundtrack)\01 - Truth, Goodness and Beauty.wav

Pre-gap length 0:00:02.00

Peak level 98.7 % Extraction speed 1.6 X Track quality 100.0 % Test CRC C02EC4B0 Copy CRC C02EC4B0 Track not present in AccurateRip database Copy OK

Track 2

Filename D:\My Music\barca008\Lorne Balfe - Genius (National Geographic Original Series Soundtrack)\02 - A Powerful Mind.wav

Peak level 98.7 % Extraction speed 1.9 X Track quality 100.0 % Test CRC D5813C16 Copy CRC D5813C16 Track not present in AccurateRip database Copy OK

Track 3

Filename D:\My Music\barca008\Lorne Balfe - Genius (National Geographic Original Series Soundtrack)\03 - Solitude.wav

Peak level 98.7 % Extraction speed 1.9 X Track quality 100.0 % Test CRC BD4D937F Copy CRC BD4D937F Track not present in AccurateRip database Copy OK

Track 4

Filename D:\My Music\barca008\Lorne Balfe - Genius (National Geographic Original Series Soundtrack)\04 - Pure Mathematics.wav

Peak level 98.7 % Extraction speed 1.9 X Track quality 100.0 % Test CRC D92645BE Copy CRC D92645BE Track not present in AccurateRip database Copy OK

Track 5

Filename D:\My Music\barca008\Lorne Balfe - Genius (National Geographic Original Series Soundtrack)\05 - In Love With The Mind.wav

Peak level 98.7 % Extraction speed 2.1 X Track quality 100.0 % Test CRC 2BCADAC8 Copy CRC 2BCADAC8 Track not present in AccurateRip database Copy OK

Track 6

Filename D:\My Music\barca008\Lorne Balfe - Genius (National Geographic Original Series Soundtrack)\06 - Discoveries.wav

Peak level 98.7 % Extraction speed 2.3 X Track quality 100.0 % Test CRC 7EB63973 Copy CRC 7EB63973 Track not present in AccurateRip database Copy OK

Track 7

Filename D:\My Music\barca008\Lorne Balfe - Genius (National Geographic Original Series Soundtrack)\07 - Time Is But A Stubborn Illusion.wav

Peak level 98.7 % Extraction speed 2.6 X Track quality 100.0 % Test CRC 996703A4 Copy CRC 996703A4 Track not present in AccurateRip database Copy OK

Track 8

Filename D:\My Music\barca008\Lorne Balfe - Genius (National Geographic Original Series Soundtrack)\08 - Solutions.wav

Peak level 98.7 % Extraction speed 2.2 X Track quality 100.0 % Test CRC 333E290E Copy CRC 333E290E Track not present in AccurateRip database Copy OK

Track 9

Filename D:\My Music\barca008\Lorne Balfe - Genius (National Geographic Original Series Soundtrack)\09 - Patriotic.wav

Peak level 98.7 % Extraction speed 2.7 X Track quality 100.0 % Test CRC F5DC4793 Copy CRC F5DC4793 Track not present in AccurateRip database Copy OK

Track 10

Filename D:\My Music\barca008\Lorne Balfe - Genius (National Geographic Original Series Soundtrack)\10 - Noble Thoughts and Deeds.wav

Peak level 98.7 % Extraction speed 2.0 X Track quality 99.9 % Test CRC 0600B432 Copy CRC 0600B432 Track not present in AccurateRip database Copy OK

Track 11

Filename D:\My Music\barca008\Lorne Balfe - Genius (National Geographic Original Series Soundtrack)\11 - Memory Is Deceptive.wav

Peak level 98.7 % Extraction speed 2.8 X Track quality 100.0 % Test CRC F6FFF66F Copy CRC F6FFF66F Track not present in AccurateRip database Copy OK

Track 12

Filename D:\My Music\barca008\Lorne Balfe - Genius (National Geographic Original Series Soundtrack)\12 - Never Stop Questioning.wav

Peak level 98.7 % Extraction speed 2.6 X Track quality 100.0 % Test CRC 38E1F7F5 Copy CRC 38E1F7F5 Track not present in AccurateRip database Copy OK

Track 13

Filename D:\My Music\barca008\Lorne Balfe - Genius (National Geographic Original Series Soundtrack)\13 - Man of Value.wav

Peak level 98.7 % Extraction speed 2.7 X Track quality 100.0 % Test CRC D4B3EEFD Copy CRC D4B3EEFD Track not present in AccurateRip database Copy OK

Track 14

Filename D:\My Music\barca008\Lorne Balfe - Genius (National Geographic Original Series Soundtrack)\14 - Imagination.wav

Peak level 98.7 % Extraction speed 2.6 X Track quality 100.0 % Test CRC C133C622 Copy CRC C133C622 Track not present in AccurateRip database Copy OK

Track 15

Filename D:\My Music\barca008\Lorne Balfe - Genius (National Geographic Original Series Soundtrack)\15 - Universe.wav

Peak level 98.7 % Extraction speed 3.0 X Track quality 100.0 % Test CRC A01F04F2 Copy CRC A01F04F2 Track not present in AccurateRip database Copy OK

Track 16

Filename D:\My Music\barca008\Lorne Balfe - Genius (National Geographic Original Series Soundtrack)\16 - Father and Son.wav

Peak level 98.7 % Extraction speed 2.7 X Track quality 100.0 % Test CRC 0B9D1840 Copy CRC 0B9D1840 Track not present in AccurateRip database Copy OK

Track 17

Filename D:\My Music\barca008\Lorne Balfe - Genius (National Geographic Original Series Soundtrack)\17 - Everybody Is A Genius.wav

Peak level 98.7 % Extraction speed 3.0 X Track quality 100.0 % Test CRC A4E0CE0A Copy CRC A4E0CE0A Track not present in AccurateRip database Copy OK

Track 18

Filename D:\My Music\barca008\Lorne Balfe - Genius (National Geographic Original Series Soundtrack)\18 - Genius.wav

Peak level 98.7 % Extraction speed 2.1 X Track quality 100.0 % Test CRC F2898ACF Copy CRC F2898ACF Track not present in AccurateRip database Copy OK

None of the tracks are present in the AccurateRip database

No errors occurred

End of status report

---- CUETools DB Plugin V2.1.6

[CTDB TOCID: 1vExlopTvQIrd33OrHRD7IZjTDs-] disk not present in databaseSubmit result: 1vExlopTvQIrd33OrHRD7IZjTDs- has been uploaded

==== Log checksum 2E897AF9E80F5200634DB74D15CA6FEF2A404CD4595DA49238185BE37EE62AAE ====
REM GENRE SoundtrackREM DATE 2017REM DISCID EF0C6D12REM COMMENT "ExactAudioCopy v1.1"PERFORMER "Lorne Balfe"TITLE "Genius (National Geographic Original Series Soundtrack)"FILE "01 - Truth, Goodness and Beauty.wav" WAVE TRACK 01 AUDIO TITLE "Truth, Goodness and Beauty" PERFORMER "Lorne Balfe" ISRC US5941407715 INDEX 01 00:00:00FILE "02 - A Powerful Mind.wav" WAVE TRACK 02 AUDIO TITLE "A Powerful Mind" PERFORMER "Lorne Balfe" ISRC US5941407716 INDEX 01 00:00:00FILE "03 - Solitude.wav" WAVE TRACK 03 AUDIO TITLE "Solitude" PERFORMER "Lorne Balfe" ISRC US5941407716 INDEX 01 00:00:00FILE "04 - Pure Mathematics.wav" WAVE TRACK 04 AUDIO TITLE "Pure Mathematics" PERFORMER "Lorne Balfe" ISRC US5941407718 INDEX 01 00:00:00FILE "05 - In Love With The Mind.wav" WAVE TRACK 05 AUDIO TITLE "In Love With The Mind" PERFORMER "Lorne Balfe" ISRC US5941407719 INDEX 01 00:00:00FILE "06 - Discoveries.wav" WAVE TRACK 06 AUDIO TITLE "Discoveries" PERFORMER "Lorne Balfe" ISRC US5941407720 INDEX 01 00:00:00FILE "07 - Time Is But A Stubborn Illusion.wav" WAVE TRACK 07 AUDIO TITLE "Time Is But A Stubborn Illusion" PERFORMER "Lorne Balfe" ISRC US5941407721 INDEX 01 00:00:00FILE "08 - Solutions.wav" WAVE TRACK 08 AUDIO TITLE "Solutions" PERFORMER "Lorne Balfe" ISRC US5941407722 INDEX 01 00:00:00FILE "09 - Patriotic.wav" WAVE TRACK 09 AUDIO TITLE "Patriotic" PERFORMER "Lorne Balfe" ISRC US5941407723 INDEX 01 00:00:00FILE "10 - Noble Thoughts and Deeds.wav" WAVE TRACK 10 AUDIO TITLE "Noble Thoughts and Deeds" PERFORMER "Lorne Balfe" ISRC US5941407724 INDEX 01 00:00:00FILE "11 - Memory Is Deceptive.wav" WAVE TRACK 11 AUDIO TITLE "Memory Is Deceptive" PERFORMER "Lorne Balfe" ISRC US5941407725 INDEX 01 00:00:00FILE "12 - Never Stop Questioning.wav" WAVE TRACK 12 AUDIO TITLE "Never Stop Questioning" PERFORMER "Lorne Balfe" ISRC US5941407726 INDEX 01 00:00:00FILE "13 - Man of Value.wav" WAVE TRACK 13 AUDIO TITLE "Man of Value" PERFORMER "Lorne Balfe" ISRC US5941407727 INDEX 01 00:00:00FILE "14 - Imagination.wav" WAVE TRACK 14 AUDIO TITLE "Imagination" PERFORMER "Lorne Balfe" ISRC US5941407728 INDEX 01 00:00:00FILE "15 - Universe.wav" WAVE TRACK 15 AUDIO TITLE "Universe" PERFORMER "Lorne Balfe" ISRC US5941407729 INDEX 01 00:00:00FILE "16 - Father and Son.wav" WAVE TRACK 16 AUDIO TITLE "Father and Son" PERFORMER "Lorne Balfe" ISRC US5941407730 INDEX 01 00:00:00FILE "17 - Everybody Is A Genius.wav" WAVE TRACK 17 AUDIO TITLE "Everybody Is A Genius" PERFORMER "Lorne Balfe" ISRC US5941407731 INDEX 01 00:00:00FILE "18 - Genius.wav" WAVE TRACK 18 AUDIO TITLE "Genius" PERFORMER "Hans Zimmer" ISRC US5941407402 INDEX 01 00:00:00


Трекер:  [ 24-Авг-2017 10:06 ]

  

Скачать .torrent

Размер .torrent файла 18 KB


Размер: 409 MB
Хэш (hash) релиза: 418fca45fe7afdf0566345542cc76d521aa7dcab

Еще никто не оставлял запись к записи скачать торрент Гений Genius . Будь первым!

!Обратная связь