Baywatch torrent

, , - AdBlock. #!


4.11 GB   |    :  1 1    |    .torrent :  30    |   
1  
   
...
 

Galfimbul

avatar Galfimbul


/ Baywatch

(Extended Cut)


5.919 / 10 5.80 / 10
: 2017
:
: , ,
: 02:01:22

: (iTunes)
:
C: , ,
:
: , , .
: , ,
:
:
: , ,
: .
: , , , , , , , - II, ,

: $69 000 000
: $58 060 186
: + $117 794 430 = $175 854 616
: $3 865 098

: 12 2017
(): 1 2017,

: . . , , , . , , . : BDRemux (HDClub)
: BDRip
: HD (720p)
: M4V
: H.264, 1280x544, 2.35:1, 3 500 Kbps, 23.976 (24000/1001) fps

1: / (iTunes), AAC / 2.0 / 160 Kbps / 48.0 KHz
2: / , AAC / 2.0 / 160 Kbps / 48.0 KHz
3: / (iTunes), AC-3 / 5.1 / 384 Kbps / 48.0 KHz
4: / , AC-3 / 5.1 / 640 Kbps / 48.0 KHz

1:
2:
3:
Sort Name: Baywatch
XID: Apple:vendor_id:2017-468940
contentID: 1231988578
Copyright: 2017 Paramount Pictures. All Rights Reserved.
Screenwriters: , , .
Producers: , ,
Director:
Cast: , , , , , , , - II, ,
Studio: Paramount
Rating Annotation: Rated R for language throughout, crude sexual content, and graphic nudity.
Rating: 5
Long Description: . . , , , . , , .
Description: . ...
Release Date: 2017-05-12T08:00:00Z
Genre: Comedy
Artist: Seth Gordon
Name: Baywatch
General
Complete name : /Users/imac/HandBrake/Baywatch (720p HD).m4v
Format : MPEG-4
Codec ID : M4V (M4V /M4A /mp42/isom)
File size : 4.11 GiB
Duration : 2h 1mn
Overall bit rate mode : Variable
Overall bit rate : 4 846 Kbps
Movie name : Baywatch
Performer : Seth Gordon
Director :
Actor : / / / / / / / - II / /
Screenplay by : / / .
Producer : / /
Production studio : Paramount
Genre : Comedy
ContentType : Short Film
Description : . ...
Recorded date : UTC 2017-05-12 08:00:00
Encoded date : UTC 2017-08-23 18:37:00
Tagged date : UTC 2017-08-23 18:40:47
Copyright : 2017 Paramount Pictures. All Rights Reserved.
Cover : Yes
Rating : None
Title/Sort : Baywatch
LongDescription : . . , , , . , , .
HDVideo : Yes
AppleStoreCatalogID : 1231988578
Vendor : Apple:vendor_id:2017-468940
ContentRating : mpaa|R|400|Rated R for language throughout, crude sexual content, and graphic nudity.

Video #1
ID : 1
Format : AVC
Format/Info : Advanced Video Codec
Format profile : High@L3.1
Format settings, CABAC : No
Format settings, ReFrames : 3 frames
Codec ID : avc1
Codec ID/Info : Advanced Video Coding
Duration : 2h 1mn
Source duration : 2h 1mn
Bit rate : 3 500 Kbps
Width : 1 280 pixels
Height : 544 pixels
Display aspect ratio : 2.35:1
Frame rate mode : Variable
Frame rate : 23.976 (24000/1001) fps
Minimum frame rate : 23.974 fps
Maximum frame rate : 23.981 fps
Color space : YUV
Chroma subsampling : 4:2:0
Bit depth : 8 bits
Scan type : Progressive
Bits/(Pixel*Frame) : 0.210
Stream size : 2.97 GiB (72%)
Source stream size : 2.97 GiB (72%)
Title : Main Program
Writing library : x264 core 148 r2708 86b7198
Encoding settings : cabac=0 / ref=3 / deblock=1:-3:-3 / analyse=0x3:0x113 / me=umh / subme=9 / psy=1 / psy_rd=1.00:0.15 / mixed_ref=1 / me_range=32 / chroma_me=1 / trellis=0 / 8x8dct=1 / cqm=0 / deadzone=21,11 / fast_pskip=0 / chroma_qp_offset=-2 / threads=17 / lookahead_threads=1 / sliced_threads=0 / nr=0 / decimate=0 / interlaced=0 / bluray_compat=0 / constrained_intra=0 / bframes=3 / b_pyramid=0 / b_adapt=2 / b_bias=0 / direct=1 / weightb=0 / open_gop=0 / weightp=0 / keyint=240 / keyint_min=24 / scenecut=40 / intra_refresh=0 / rc_lookahead=40 / rc=2pass / mbtree=1 / bitrate=3500 / ratetol=1.0 / qcomp=0.65 / qpmin=0 / qpmax=69 / qpstep=4 / cplxblur=20.0 / qblur=0.5 / vbv_maxrate=9500 / vbv_bufsize=9500 / nal_hrd=none / filler=0 / ip_ratio=1.40 / aq=1:1.10
Language : English
Encoded date : UTC 2017-08-23 18:37:00
Tagged date : UTC 2017-08-23 18:37:09
Color range : Limited
Color primaries : BT.709
Transfer characteristics : BT.709
Matrix coefficients : BT.709
Menus : 9,10

Video #2
ID : 10
Format : JPEG
Codec ID : jpeg
Duration : 2h 1mn
Bit rate mode : Variable
Bit rate : 744 bps
Width : 640 pixels
Height : 272 pixels
Display aspect ratio : 2.35:1
Frame rate mode : Variable
Frame rate : 0.002 fps
Minimum frame rate : 0.002 fps
Maximum frame rate : 0.004 fps
Color space : YUV
Chroma subsampling : 4:2:0
Bit depth : 8 bits
Compression mode : Lossy
Bits/(Pixel*Frame) : 2.137
Stream size : 727 KiB (0%)
Title : Chapter Images
Language : English
Default : No
Encoded date : UTC 2017-08-23 18:39:19
Tagged date : UTC 2017-08-23 18:39:19
Menu For : 1

Audio #1
ID : 2
Format : AAC
Format/Info : Advanced Audio Codec
Format profile : LC
Codec ID : 40
Duration : 2h 1mn
Bit rate mode : Variable
Bit rate : 156 Kbps
Maximum bit rate : 233 Kbps
Channel(s) : 2 channels
Channel positions : Front: L R
Sampling rate : 48.0 KHz
Frame rate : 46.875 fps (1024 SPF)
Compression mode : Lossy
Stream size : 136 MiB (3%)
Title : Russian Stereo
Language : Russian
Default : Yes
Alternate group : 1
Encoded date : UTC 2017-08-23 18:37:00
Tagged date : UTC 2017-08-23 18:38:06
Fallback From : 4
Subtitles : 6,7

Audio #2
ID : 3
Format : AAC
Format/Info : Advanced Audio Codec
Format profile : LC
Codec ID : 40
Duration : 2h 1mn
Bit rate mode : Variable
Bit rate : 157 Kbps
Maximum bit rate : 240 Kbps
Channel(s) : 2 channels
Channel positions : Front: L R
Sampling rate : 48.0 KHz
Frame rate : 46.875 fps (1024 SPF)
Compression mode : Lossy
Stream size : 136 MiB (3%)
Title : English Stereo
Language : English
Default : No
Alternate group : 1
Encoded date : UTC 2017-08-23 18:37:00
Tagged date : UTC 2017-08-23 18:38:06
Fallback From : 5

Audio #3
ID : 4
Format : AC-3
Format/Info : Audio Coding 3
Format settings, Endianness : Big
Codec ID : ac-3
Duration : 2h 1mn
Bit rate mode : Constant
Bit rate : 384 Kbps
Channel(s) : 6 channels
Channel positions : Front: L C R, Side: L R, LFE
Sampling rate : 48.0 KHz
Frame rate : 31.250 fps (1536 SPF)
Bit depth : 16 bits
Compression mode : Lossy
Stream size : 333 MiB (8%)
Title : Russian DD 5.1
Language : Russian
Service kind : Complete Main
Default : Inherited From: 2
Alternate group : 1
Encoded date : UTC 2017-08-23 18:37:00
Tagged date : UTC 2017-08-23 18:38:06
Fallback To : 2
Subtitles : 6,7

Audio #4
ID : 5
Format : AC-3
Format/Info : Audio Coding 3
Format settings, Endianness : Big
Codec ID : ac-3
Duration : 2h 1mn
Bit rate mode : Constant
Bit rate : 640 Kbps
Channel(s) : 6 channels
Channel positions : Front: L C R, Side: L R, LFE
Sampling rate : 48.0 KHz
Frame rate : 31.250 fps (1536 SPF)
Bit depth : 16 bits
Compression mode : Lossy
Stream size : 556 MiB (13%)
Title : English DD 5.1
Language : English
Service kind : Complete Main
Default : No
Alternate group : 1
Encoded date : UTC 2017-08-23 18:37:00
Tagged date : UTC 2017-08-23 18:38:06
Fallback To : 3

Text #1
ID : 6
Format : Timed Text
Muxing mode : sbtl
Codec ID : tx3g
Duration : 38mn 59s
Bit rate mode : Variable
Bit rate : 2 bps
Stream size : 596 Bytes (0%)
Title : Russian forced
Language : Russian
Default : Yes
Forced : Yes
Alternate group : 2
Encoded date : UTC 2017-08-23 18:37:00
Tagged date : UTC 2017-08-23 18:37:27
Subtitles For : 2,4
Full Alternative : 7

Text #2
ID : 7
Format : Timed Text
Muxing mode : sbtl
Codec ID : tx3g
Duration : 1h 57mn
Bit rate mode : Variable
Bit rate : 113 bps
Stream size : 97.2 KiB (0%)
Title : Russian full
Language : Russian
Default : No
Forced : No
Alternate group : 2
Encoded date : UTC 2017-08-23 18:37:00
Tagged date : UTC 2017-08-23 18:38:04
Subtitles For : 2,4
Forced Alternative : 6

Text #3
ID : 8
Format : Timed Text
Muxing mode : sbtl
Codec ID : tx3g
Duration : 1h 57mn
Bit rate mode : Variable
Bit rate : 91 bps
Stream size : 78.5 KiB (0%)
Title : English full
Language : English
Default : No
Forced : No
Alternate group : 2
Encoded date : UTC 2017-08-23 18:37:00
Tagged date : UTC 2017-08-23 18:38:04

Menu #1
00:00:00.000 : Chapter 1
00:08:55.160 : Chapter 2
00:16:54.305 : Chapter 3
00:21:01.385 : Chapter 4
00:29:40.237 : Chapter 5
00:38:02.906 : Chapter 6
00:44:54.442 : Chapter 7
00:50:32.988 : Chapter 8
01:01:29.519 : Chapter 9
01:11:48.763 : Chapter 10
01:19:43.821 : Chapter 11
01:29:00.085 : Chapter 12
01:35:22.717 : Chapter 13
01:44:31.223 : Chapter 14
01:50:07.101 : Chapter 15
01:54:51.718 : Chapter 16

Menu #2
ID : 9
Codec ID : text
Duration : 2h 1mn
Language : English
Encoded date : UTC 2017-08-23 18:39:14
Tagged date : UTC 2017-08-23 18:39:14
Menu For : 1
00:00:00.000 : Chapter 1
00:08:55.160 : Chapter 2
00:16:54.305 : Chapter 3
00:21:01.385 : Chapter 4
00:29:40.237 : Chapter 5
00:38:02.906 : Chapter 6
00:44:54.442 : Chapter 7
00:50:32.988 : Chapter 8
01:01:29.519 : Chapter 9
01:11:48.763 : Chapter 10
01:19:43.821 : Chapter 11
01:29:00.085 : Chapter 12
01:35:22.717 : Chapter 13
01:44:31.223 : Chapter 14
01:50:07.101 : Chapter 15
01:54:51.718 : Chapter 16
Bit rate mode : VBR
x264 [info]: frame I:2959 Avg QP:15.85 size: 95842
x264 [info]: frame P:75451 Avg QP:18.80 size: 28251
x264 [info]: frame B:96195 Avg QP:21.43 size: 7994
x264 [info]: consecutive B-frames: 7.0% 52.2% 19.0% 21.7%
x264 [info]: mb I I16..4: 8.4% 53.1% 38.6%
x264 [info]: mb P I16..4: 1.8% 5.7% 3.5% P16..4: 46.3% 23.8% 10.6% 0.0% 0.0% skip: 8.3%
x264 [info]: mb B I16..4: 0.2% 0.8% 0.7% B16..8: 43.2% 9.5% 1.7% direct: 3.4% skip:40.5% L0:36.7% L1:53.3% BI:10.0%
x264 [info]: 8x8 transform intra:51.7% inter:47.5%
x264 [info]: coded y,uvDC,uvAC intra: 81.9% 78.0% 55.0% inter: 23.2% 20.6% 11.3%
x264 [info]: i16 v,h,dc,p: 38% 19% 6% 37%
x264 [info]: i8 v,h,dc,ddl,ddr,vr,hd,vl,hu: 9% 10% 4% 10% 15% 14% 14% 12% 12%
x264 [info]: i4 v,h,dc,ddl,ddr,vr,hd,vl,hu: 10% 11% 3% 11% 16% 15% 14% 10% 10%
x264 [info]: i8c dc,h,v,p: 49% 19% 20% 12%
x264 [info]: ref P L0: 76.6% 14.1% 9.3%
x264 [info]: ref B L0: 84.7% 15.3%
x264 [info]: kb/s:3497.86
Apple TV, iPad, iPhone, iPod Touch.
Windows VLC media player

 ·  , , FAQ-
:  [ 23--2017 22:12 ]

  

.torrent

.torrent 41 KB


: 4.11 GB
(hash) : d7bcdb53a78de93065b4a1dae6e2c6bf7db64c59
··
...

Baywatch . !

!