Скачать порно через торрент Kyonyuu x Genkai x Emaki UnionPeer.org бесплатно онлайн HD качество

Скачать новое порно 2015, 2014 новинки через торрент UnionPeer.org

Порно торрент бесплатно ЮнионПир.орг

Если у вас наблюдаются проблемы со скриншотами, переходом по ссылками, скачиванием торрентов - проблемы в блокировщике рекламы AdBlock. #хорошегоДня!


Статистика раздачи
Размер:  2.34 GB   |    Зарегистрирован:  30 дней   |    .torrent скачан:  715 раз   |   
Раздают:  4  
   
Загрузка...
 
Автор Сообщение

Galfimbul

avatar Galfimbul


Kyonyuu x Genkai x Emaki
「巨乳×限界×絵巻」
「巨乳×限界×絵巻2」
「巨乳×限界×絵巻3」

Год выпуска: 2016-2017
Жанр: big breast, small breast, handjob, footjob, paizuri, oral, group, toys, yuri, creampie
Серии: ep. 1-3 of 3
Продолжительность: 36+53+56mn
Цензура: Есть во всех файлах

Озвучка: Японская оригинальная (в первой части только музыкальное сопровождение!)

Студия: POCOMOPREMIUM

Описание:
Senr*n K*gura characters like you've never then!
Asuka, Yumi and Yomi reveal their "night life" personas!

http://www.dlsite.com/ecchi-eng/work/=/product_id/RE126556.html
http://www.dlsite.com/ecchi-eng/work/=/product_id/RE172560.html
http://www.dlsite.com/ecchi-eng/work/=/product_id/RE205271.html

Качество видео: WEB-DL
Разрешение видео: 576p, 720p
Формат видео: MP4
Видео: 1024-576 (ep. 1), 1280-720 (ep. 2-3), 16-9, 30 fps, AVC, 1600-3000 kbps
Аудио: jpn, AAC, Stereo, 48.0 / 24.0 - 44.1 / 22.05 KHz, 78.7-128 kbps
General
Complete name : Kyonyuu x Genkai x Emaki 1 [F6428DC2].mp4
Format : MPEG-4
Format profile : Base Media
Codec ID : isom (isom/avc1)
File size : 489 MiB
Duration : 36 min 20 s
Overall bit rate mode : Variable
Overall bit rate : 1 882 kb/s
Encoded date : UTC 2013-12-13 18:37:38
Tagged date : UTC 2013-12-13 18:37:38

Video
ID : 1
Format : AVC
Format/Info : Advanced Video Codec
Format profile : High@L3.1
Format settings, CABAC : Yes
Format settings, ReFrames : 3 frames
Codec ID : avc1
Codec ID/Info : Advanced Video Coding
Duration : 36 min 20 s
Bit rate : 1 800 kb/s
Maximum bit rate : 3 887 kb/s
Width : 1 024 pixels
Height : 576 pixels
Display aspect ratio : 16:9
Frame rate mode : Constant
Frame rate : 30.000 FPS
Color space : YUV
Chroma subsampling : 4:2:0
Bit depth : 8 bits
Scan type : Progressive
Bits/(Pixel*Frame) : 0.102
Stream size : 468 MiB (96%)
Writing library : x264 core 65 r999 cc51047
Encoding settings : cabac=1 / ref=3 / deblock=1:-1:-1 / analyse=0x3:0x133 / me=umh / me-prepass=1 / subme=9 / psy_rd=0.0:0.0 / mixed_ref=1 / me_range=32 / chroma_me=1 / trellis=2 / qns=0 / 8x8dct=1 / cqm=0 / deadzone=21,11 / chroma_qp_offset=0 / threads=12 / nr=0 / decimate=0 / mbaff=0 / bframes=3 / b_pyramid=0 / b_adapt=2 / b_bias=0 / direct=3 / wpredb=1 / keyint=250 / keyint_min=1 / scenecut=60(pre) / rc=2pass / bitrate=1800 / ratetol=1.0 / qcomp=0.60 / qpmin=10 / qpmax=51 / qpstep=4 / cplxblur=20.0 / qblur=0.5 / ip_ratio=1.40 / pb_ratio=1.30 / aq=1:0.50:0.50:11.00:0
Encoded date : UTC 2013-12-13 18:37:38
Tagged date : UTC 2013-12-13 18:37:47

Audio
ID : 2
Format : AAC
Format/Info : Advanced Audio Codec
Format profile : HE-AAC / LC
Codec ID : 40
Duration : 36 min 20 s
Bit rate mode : Variable
Bit rate : 78.7 kb/s
Maximum bit rate : 86.4 kb/s
Channel(s) : 2 channels
Channel positions : Front: L R
Sampling rate : 48.0 kHz / 24.0 kHz
Frame rate : 23.438 FPS (1024 spf)
Compression mode : Lossy
Stream size : 20.5 MiB (4%)
Encoded date : UTC 2013-12-13 18:37:46
Tagged date : UTC 2013-12-13 18:37:47
General
Complete name : Kyonyuu x Genkai x Emaki 2 [C624767B].mp4
Format : MPEG-4
Format profile : Base Media
Codec ID : isom (isom/iso2/avc1/mp41)
File size : 652 MiB
Duration : 52 min 34 s
Overall bit rate mode : Variable
Overall bit rate : 1 734 kb/s
Writing application : Lavf54.63.104

Video
ID : 1
Format : AVC
Format/Info : Advanced Video Codec
Format profile : High@L3.1
Format settings, CABAC : Yes
Format settings, ReFrames : 3 frames
Codec ID : avc1
Codec ID/Info : Advanced Video Coding
Duration : 52 min 34 s
Bit rate : 1 600 kb/s
Width : 1 280 pixels
Height : 720 pixels
Display aspect ratio : 16:9
Frame rate mode : Constant
Frame rate : 30.000 FPS
Color space : YUV
Chroma subsampling : 4:2:0
Bit depth : 8 bits
Scan type : Progressive
Bits/(Pixel*Frame) : 0.058
Stream size : 602 MiB (92%)
Writing library : x264 core 65 r999 cc51047
Encoding settings : cabac=1 / ref=3 / deblock=1:-1:-1 / analyse=0x3:0x133 / me=umh / me-prepass=1 / subme=9 / psy_rd=0.0:0.0 / mixed_ref=1 / me_range=32 / chroma_me=1 / trellis=2 / qns=0 / 8x8dct=1 / cqm=0 / deadzone=21,11 / chroma_qp_offset=0 / threads=12 / nr=0 / decimate=0 / mbaff=0 / bframes=3 / b_pyramid=0 / b_adapt=2 / b_bias=0 / direct=3 / wpredb=1 / keyint=250 / keyint_min=1 / scenecut=60(pre) / rc=2pass / bitrate=1600 / ratetol=1.0 / qcomp=0.60 / qpmin=10 / qpmax=51 / qpstep=4 / cplxblur=20.0 / qblur=0.5 / ip_ratio=1.40 / pb_ratio=1.30 / aq=1:0.50:0.50:11.00:0

Audio
ID : 2
Format : AAC
Format/Info : Advanced Audio Codec
Format profile : HE-AAC / LC
Codec ID : 40
Duration : 52 min 34 s
Bit rate mode : Variable
Bit rate : 126 kb/s
Maximum bit rate : 128 kb/s
Channel(s) : 2 channels
Channel positions : Front: L R
Sampling rate : 44.1 kHz / 22.05 kHz
Frame rate : 21.533 FPS (1024 spf)
Compression mode : Lossy
Stream size : 47.4 MiB (7%)
Language : unk
Default : Yes
Alternate group : 1
General
Complete name : Kyonyuu x Genkai x Emaki 3 01 [65B0CC52].mp4
Format : MPEG-4
Format profile : Base Media
Codec ID : isom (isom/iso2/avc1/mp41)
File size : 80.7 MiB
Duration : 3 min 37 s
Overall bit rate : 3 112 kb/s
Encoded date : UTC 2017-08-06 09:36:47
Tagged date : UTC 2017-08-06 09:36:47
Writing application : Lavf57.57.100

Video
ID : 1
Format : AVC
Format/Info : Advanced Video Codec
Format profile : Main@L4.1
Format settings, CABAC : Yes
Format settings, ReFrames : 2 frames
Codec ID : avc1
Codec ID/Info : Advanced Video Coding
Duration : 3 min 37 s
Bit rate : 3 000 kb/s
Width : 1 280 pixels
Height : 720 pixels
Display aspect ratio : 16:9
Frame rate mode : Constant
Frame rate : 30.000 FPS
Color space : YUV
Chroma subsampling : 4:2:0
Bit depth : 8 bits
Scan type : Progressive
Bits/(Pixel*Frame) : 0.109
Stream size : 77.2 MiB (96%)
Writing library : x264 core 148 r2721
Encoding settings : cabac=1 / ref=2 / deblock=1:0:0 / analyse=0x1:0x131 / me=hex / subme=7 / psy=1 / psy_rd=1.00:0.00 / mixed_ref=0 / me_range=16 / chroma_me=1 / trellis=1 / 8x8dct=0 / cqm=0 / deadzone=21,11 / fast_pskip=1 / chroma_qp_offset=-2 / threads=12 / lookahead_threads=2 / sliced_threads=0 / nr=0 / decimate=1 / interlaced=0 / bluray_compat=0 / constrained_intra=0 / bframes=3 / b_pyramid=0 / b_adapt=1 / b_bias=0 / direct=3 / weightb=1 / open_gop=0 / weightp=2 / keyint=300 / keyint_min=30 / scenecut=40 / intra_refresh=0 / rc_lookahead=40 / rc=2pass / mbtree=1 / bitrate=3000 / ratetol=1.0 / qcomp=0.60 / qpmin=10 / qpmax=69 / qpstep=4 / cplxblur=20.0 / qblur=0.5 / vbv_maxrate=3500 / vbv_bufsize=24000 / nal_hrd=none / filler=0 / ip_ratio=1.40 / aq=3:1.00
Encoded date : UTC 2017-08-06 09:36:47
Tagged date : UTC 2017-08-06 09:36:47

Audio
ID : 2
Format : AAC
Format/Info : Advanced Audio Codec
Format profile : HE-AAC / LC
Codec ID : 40
Duration : 3 min 37 s
Duration_LastFrame : -28 ms
Bit rate mode : Constant
Bit rate : 128 kb/s
Channel(s) : 2 channels
Channel positions : Front: L R
Sampling rate : 48.0 kHz / 24.0 kHz
Frame rate : 23.438 FPS (1024 spf)
Compression mode : Lossy
Stream size : 3.32 MiB (4%)
Default : Yes
Alternate group : 1
Encoded date : UTC 2017-08-06 09:36:47
Tagged date : UTC 2017-08-06 09:36:47
От Bupyc – первая и третья части.


Трекер:  [ 20-Авг-2017 20:10 ]

  

Скачать .torrent

Размер .torrent файла 14 KB


Размер: 2.34 GB
Хэш (hash) релиза: 37ac30b9968b5793581fca06862d7bd2ae3edbbf

Торренты, похожие на Kyonyuu x Genkai x Emaki скачать торрент

Форум Название Автор Размер S L Добавлен
Хентай, порно и эротические мультфильмы ·· Kyonyuu x Genkai x Emaki II (POCOMOPREMIUM) [cen] [2016 г., Straight, Blowjob, Titsjob, Big Tits, Group, DLversion] [jap] [720p] Galfimbul 683750216652 MB 2 0 1471968161

19:02

23-Авг-16

Еще никто не оставлял запись к записи скачать торрент Kyonyuu x Genkai x Emaki . Будь первым!

!Обратная связь