Скачать через торрент Вокруг смеха 52 выпуск в Ялте 2017.08.19 Фильм бесплатно в хорошем качестве torrent

Скачивайте на UnionPeer.org фильмы через торрент без регистрации. Новинки кино в хорошем качестве через торрент. На UnionPeer.org можно скачать через торрент фильмы 2014 и 2015 годов. Самые новые фильмы.

Скачать торрент Вокруг смеха 52 выпуск в Ялте 2017.08.19 бесплатно через .torrent фильм мультфильм сериал

Если у вас наблюдаются проблемы со скриншотами, переходом по ссылками, скачиванием торрентов - проблемы в блокировщике рекламы AdBlock. #хорошегоДня!


Статистика раздачи
Размер:  5.57 GB   |    Зарегистрирован:  1 месяц 2 дня   |    .torrent скачан:  7 раз   |   
Раздают:  1  
   
Загрузка...
 
Автор Сообщение

Galfimbul

avatar Galfimbul


Вокруг смеха 52 выпуск в Ялте 2017.08.19

Дата/Год выпуска: 2017
Страна: Россия
Жанр: Юмористическая передача
Продолжительность: 01:24:00
Перевод: Не требуется
Оригинальная аудиодорожка: русский
Телеканал: Первый канал HD
Описание: Спустя 25 лет с момента выхода в эфир последнего выпуска "Первый канал" возрождает легендарную программу "Вокруг смеха". Ведущим обновленной передачи станет известный юморист и актер Ефим Шифрин.
Современной основой "Вокруг смеха" будут номера различных юмористических жанров, как новых, так и классических. В программе встретится прошлое и настоящее: сатирический монолог и стендап, театральная миниатюра и скетч, музыкальные номера и современные пародии со сложным пластическим гримом. А также зрители смогут увидеть классические юмористические номера из обширного архива программы.
"Вокруг смеха", как и раньше, будет не только показывать номера признанных мастеров, но и открывать новые имена.
В первых выпусках примут участие: Лариса Долина, Левон Оганезов, Юрий Гальцев, Михаил Боярский, театр "Лицедеи", Николай Валуев, Борис Никишкин, Александр Олешко, Олег Есенин, Владимир Кисаров, Всеволод Москвин и группа "Глом", Семён Альтов, Тимур Родригез.

Качество: HDTV 1080i
Контейнер: TS
Видео кодек: H.264
Аудио кодек: MP2
Видео: H264; 1920x1080 (16:9); 25.000 fps; ~ 8 372 kb/s
Аудио 1: AC3, 6 channels, 48000Hz, 384 Кбит/сек
Аудио 2: MPEG Audio 48000Hz stereo 224 Кбит/сек
GeneralID : 1 (0x1)Complete name : F:\111---Смеяться разрешается\Вокруг смеха 52 выпуск в Ялте 2017.08.19.tsFormat : MPEG-TSFile size : 5.57 GiBDuration : 1 h 24 minOverall bit rate mode : VariableOverall bit rate : 9 453 kb/s

VideoID : 2101 (0x835)Menu ID : 101 (0x65)Format : AVCFormat/Info : Advanced Video CodecFormat profile : High@L4Format settings, CABAC : YesFormat settings, ReFrames : 3 framesCodec ID : 27Duration : 1 h 24 minBit rate : 8 372 kb/sWidth : 1 920 pixelsHeight : 1 080 pixelsDisplay aspect ratio : 16:9Frame rate : 25.000 FPSStandard : ComponentColor space : YUVChroma subsampling : 4:2:0Bit depth : 8 bitsScan type : InterlacedScan type, store method : Separated fieldsScan order : Top Field FirstBits/(Pixel*Frame) : 0.161Stream size : 4.93 GiB (89%)Color range : LimitedColor primaries : BT.709Transfer characteristics : BT.709Matrix coefficients : BT.709

Audio #1ID : 3101 (0xC1D)Menu ID : 101 (0x65)Format : AC-3Format/Info : Audio Coding 3Mode extension : CM (complete main)Format settings, Endianness : BigCodec ID : 6Duration : 1 h 24 minBit rate mode : ConstantBit rate : 384 kb/sChannel(s) : 6 channelsChannel positions : Front: L C R, Side: L R, LFESampling rate : 48.0 kHzFrame rate : 31.250 FPS (1536 spf)Bit depth : 16 bitsCompression mode : LossyStream size : 232 MiB (4%)Language : Russian

Audio #2ID : 3102 (0xC1E)Menu ID : 101 (0x65)Format : MPEG AudioFormat version : Version 1Format profile : Layer 2Codec ID : 3Duration : 1 h 24 minBit rate mode : ConstantBit rate : 224 kb/sChannel(s) : 2 channelsSampling rate : 48.0 kHzCompression mode : LossyStream size : 135 MiB (2%)Language : Russian


Трекер:  [ 19-Авг-2017 21:42 ]

  

Скачать .torrent

Размер .torrent файла 28 KB


Размер: 5.57 GB
Хэш (hash) релиза: d0a8e5c606e2e876e74d81a054cbc5559c7d76de
Подписка на обновления:

Еще никто не оставлял запись к записи скачать торрент Вокруг смеха 52 выпуск в Ялте 2017.08.19 . Будь первым!

!Обратная связь