Скачать через торрент StarCraft 2 - HappyStream Игра для ПК (PC) бесплатно torrent

Если у вас наблюдаются проблемы со скриншотами, переходом по ссылками, скачиванием торрентов - проблемы в блокировщике рекламы AdBlock. #хорошегоДня!


Статистика раздачи
Размер:  56.3 GB   |    Зарегистрирован:  5 лет 10 месяцев   |    .torrent скачан:  67 раз   |   
Раздают:  1  
   
Загрузка...
 
Автор Сообщение

L


StarCraft 2 - HappyStream

Год выпуска: 2010
Разработчик: Blizzard Entertainment
Жанр: RTS
Платформа: PC
Продолжительность: <= 6h 40min
Субтитры: нет
Язык озвучки : русский
Формат: FLV
Информация о видео: Video: Flash Video 4 1024x768
Информация о аудио: Audio: MPEG Audio Layer 3 44100Hz stereo 128kbps
Описание: Покорение happy-тоссом евро-ладдера в даймонде.
ВОДы известного стриммера sc2tv.ru CAHbKA.happy
Список файлов:
HappyStream-1.08.2010.flv (6h 40min)
HappyStream-2.08.2010.flv (3h 12min)
HappyStream(1x1)-4.08.2010.flv (4h 50min)
HappyStream(4x4)-4.08.2010.flv (3h 53min)
HappyStream-6.08.2010.flv (2h 45min)
HappyStream-9.08.2010.flv (4h 5min)
HappyStream-13.08.2010.flv (3h 3min)
HappyStream-15.08.2010.flv (3h 13min)
HappyStream-17.08.2010.flv (4h 43min)
HappyStream-18.08.2010.flv (3h 20min)
HappyStream-20.08.2010.flv (3h 48min)
HappyStream-21.08.2010.flv (5h 57min)
HappyStream-27.08.2010.flv (3h 17min)
HappyStream(Part_I)-28.08.2010.flv (2h 15min)
HappyStream(Part_II)-28.08.2010.flv (1h 31min)
HappyStream-30.08.2010.flv (1h 1min)
HappyStream-1.09.2010.flv (4h 22min)
HappyStream-6.09.2010.flv (4h 26min)
HappyStream-7.09.2010.flv (6h 40min)
HappyStream-23.09.2010(vol.1).flv (48min 29s)
HappyStream-23.09.2010(vol.2).flv (2h 21min)
2010_10_01_happystream_part1.flv (1h 10min)
2010_10_01_happystream_part2.flv (45min 12s)
2010_10_01_happystream_part3.flv (2h 7min)
2010_10_07_happystream.flv.flv (2h 51min)
2010_10_10_happystream.flv.flv (4h 46min)
2010_10_12_happystream.flv.flv (3h 11min)
2010_10_30_happystream.flv (2h 53min)
2010_11_04_happystream.flv (4h 3min)

Other Stream
StreamRazbor-25.08.2010.flv (3h 6min)
1x1,4x4Stream-26.08.2010.flv (2h 31min)
NightStream4x41x1-26.08.2010.flv (3h 1min)
IMBA KOTH 28-08 pt1.flv (15min 54s)
IMBA KOTH 28-08 pt2.flv (1h 5min)
2010_10_13_esl.flv (7h 30min)
2010_10_17_CloseCombat(SemiFinals).flv (27min 58s)
2010_10_17_CloseCombat(Finals).flv (18mn 59s)
2010_10_17_esl(part1).flv (3h 37min)
2010_10_17_esl(part2).flv (1h 27min)
2010_10_17_esl(part3).flv (2h 45min)
2010_10_17_esl(part4).flv (1h 41min)
2010_10_19_CraftCup.flv (3h 41min)
2010_10_27_CraftCup(part1).flv (1h 22min)
2010_10_27_CraftCup(part2).flv (48mn 41s)
2010_11_02_CraftCup.flv (41min 20s)
StreamWithInHeartBeat.flv (2h 32min)
General
Complete name : D:\Torrents\HappyStream\Other Stream\StreamRazbor-25.08.2010.flv
Format : Flash Video
File size : 1.23 GiB
Duration : 3h 6mn
Overall bit rate : 943 Kbps
Encoded date : Wed Aug 25 00:57:58 2010
audiochannels : 2.000
audiodevice : Line 1 (Virtual Audio Cable)
audioinputvolume : 100.000
fmeversion : 2.5.0.2086
presetname : Custom
videodevice : VHScrCap
videokeyframe_frequency : 5.000

Video
Format : VP6
Duration : 3h 6mn
Bit rate : 800 Kbps
Width : 1 024 pixels
Height : 768 pixels
Display aspect ratio : 4:3
Frame rate mode : Constant
Frame rate : 25.000 fps
Bits/(Pixel*Frame) : 0.041
Stream size : 1.04 GiB (85%)

Audio
Format : MPEG Audio
Format version : Version 1
Format profile : Layer 3
Mode : Joint stereo
Mode extension : MS Stereo
Duration : 3h 6mn
Bit rate mode : Constant
Bit rate : 128 Kbps
Channel(s) : 2 channels
Sampling rate : 44.1 KHz
Bit depth : 16 bits
Stream size : 171 MiB (14%)
General
Complete name : D:\Torrents\HappyStream\Other Stream\1x1,4x4Stream-26.08.2010.flv
Format : Flash Video
File size : 1.00 GiB
Duration : 2h 31mn
Overall bit rate : 947 Kbps
Encoded date : Thu Aug 26 00:33:25 2010
audiochannels : 2.000
audiodevice : Line 1 (Virtual Audio Cable)
audioinputvolume : 100.000
fmeversion : 2.5.0.2086
presetname : Custom
videodevice : VHScrCap
videokeyframe_frequency : 5.000

Video
Format : VP6
Duration : 2h 31mn
Bit rate : 800 Kbps
Width : 1 024 pixels
Height : 768 pixels
Display aspect ratio : 4:3
Frame rate mode : Variable
Stream size : 868 MiB (84%)

Audio
Format : MPEG Audio
Format version : Version 1
Format profile : Layer 3
Mode : Joint stereo
Mode extension : MS Stereo
Duration : 2h 31mn
Bit rate mode : Constant
Bit rate : 128 Kbps
Channel(s) : 2 channels
Sampling rate : 44.1 KHz
Bit depth : 16 bits
Stream size : 139 MiB (14%)
\
General
Complete name : D:\Torrents\HappyStream\Other Stream\NightStream4x41x1-26.08.2010.flv
Format : Flash Video
File size : 1.20 GiB
Duration : 3h 1mn
Overall bit rate : 943 Kbps
Encoded date : Thu Aug 26 23:32:31 2010
audiochannels : 2.000
audiodevice : Line 1 (Virtual Audio Cable)
audioinputvolume : 100.000
fmeversion : 2.5.0.2086
presetname : Custom
videodevice : VHScrCap
videokeyframe_frequency : 5.000

Video
Format : VP6
Duration : 3h 1mn
Bit rate : 800 Kbps
Width : 1 024 pixels
Height : 768 pixels
Display aspect ratio : 4:3
Frame rate mode : Constant
Frame rate : 25.000 fps
Bits/(Pixel*Frame) : 0.041
Stream size : 1.02 GiB (85%)

Audio
Format : MPEG Audio
Format version : Version 1
Format profile : Layer 3
Mode : Joint stereo
Mode extension : MS Stereo
Duration : 3h 1mn
Bit rate mode : Constant
Bit rate : 128 Kbps
Channel(s) : 2 channels
Sampling rate : 44.1 KHz
Bit depth : 16 bits
Stream size : 166 MiB (14%)
General
Complete name : D:\Torrents\HappyStream\Other Stream\IMBA KOTH 28-08 pt1.flv
Format : Flash Video
File size : 161 MiB
Duration : 15mn 54s
Overall bit rate : 1 414 Kbps
Encoded date : Sat Aug 28 20:04:02 2010
audiochannels : 1.000
audiocodecid : .mp3
audiodevice : kX Wave SB0228 10k1 [ec00] 0/1 [0]
audioinputvolume : 100.000
fmleversion : 3.0.1.5963
presetname : Custom
videocodecid : VP62
videodevice : VHScrCap
videokeyframe_frequency : 5.000

Video
Format : VP6
Duration : 15mn 54s
Bit rate : 1 300 Kbps
Width : 1 024 pixels
Height : 768 pixels
Display aspect ratio : 4:3
Frame rate mode : Variable
Stream size : 148 MiB (92%)

Audio
Format : MPEG Audio
Format version : Version 1
Format profile : Layer 3
Duration : 15mn 54s
Bit rate mode : Constant
Bit rate : 128 Kbps
Channel(s) : 1 channel
Sampling rate : 44.1 KHz
Bit depth : 16 bits
Stream size : 14.6 MiB (9%)
General
Complete name : D:\Torrents\HappyStream\Other Stream\IMBA KOTH 28-08 pt2.flv
Format : Flash Video
File size : 654 MiB
Duration : 1h 5mn
Overall bit rate : 1 405 Kbps
Encoded date : Sat Aug 28 20:22:05 2010
audiochannels : 1.000
audiocodecid : .mp3
audiodevice : kX Wave SB0228 10k1 [ec00] 0/1 [0]
audioinputvolume : 100.000
fmleversion : 3.0.1.5963
presetname : Custom
videocodecid : VP62
videodevice : VHScrCap
videokeyframe_frequency : 5.000

Video
Format : VP6
Duration : 1h 5mn
Bit rate : 1 300 Kbps
Width : 1 024 pixels
Height : 768 pixels
Display aspect ratio : 4:3
Frame rate mode : Constant
Frame rate : 25.000 fps
Bits/(Pixel*Frame) : 0.066
Stream size : 605 MiB (92%)

Audio
Format : MPEG Audio
Format version : Version 1
Format profile : Layer 3
Duration : 1h 5mn
Bit rate mode : Constant
Bit rate : 128 Kbps
Channel(s) : 1 channel
Sampling rate : 44.1 KHz
Bit depth : 16 bits
Stream size : 59.5 MiB (9%)
General
Complete name : D:\Torrents\HappyStream\HappyStream-1.08.2010.flv
Format : Flash Video
File size : 2.64 GiB
Duration : 6h 40mn
Overall bit rate : 945 Kbps
Encoded date : Sun Aug 01 00:19:03 2010
audiochannels : 2.000
audiodevice : Line 1 (Virtual Audio Cable)
audioinputvolume : 100.000
fmeversion : 2.5.0.2086
presetname : Custom
videodevice : VHScrCap
videokeyframe_frequency : 5.000

Video
Format : VP6
Duration : 6h 40mn
Bit rate : 800 Kbps
Width : 1 024 pixels
Height : 768 pixels
Display aspect ratio : 4:3
Frame rate mode : Variable
Stream size : 2.24 GiB (85%)

Audio
Format : MPEG Audio
Format version : Version 1
Format profile : Layer 3
Mode : Joint stereo
Mode extension : MS Stereo
Duration : 6h 40mn
Bit rate mode : Constant
Bit rate : 128 Kbps
Channel(s) : 2 channels
Sampling rate : 44.1 KHz
Bit depth : 16 bits
Stream size : 366 MiB (14%)
General
Complete name : D:\Torrents\HappyStream\HappyStream-2.08.2010.flv
Format : Flash Video
File size : 1.28 GiB
Duration : 3h 12mn
Overall bit rate : 953 Kbps
Encoded date : Mon Aug 02 09:57:50 2010
audiochannels : 2.000
audiodevice : Line 1 (Virtual Audio Cable)
audioinputvolume : 100.000
fmeversion : 2.5.0.2086
presetname : Custom
videodevice : VHScrCap
videokeyframe_frequency : 5.000

Video
Format : VP6
Duration : 3h 12mn
Bit rate : 800 Kbps
Width : 1 024 pixels
Height : 768 pixels
Display aspect ratio : 4:3
Frame rate mode : Constant
Frame rate : 25.000 fps
Bits/(Pixel*Frame) : 0.041
Stream size : 1.08 GiB (84%)

Audio
Format : MPEG Audio
Format version : Version 1
Format profile : Layer 3
Mode : Joint stereo
Mode extension : MS Stereo
Duration : 3h 12mn
Bit rate mode : Constant
Bit rate : 128 Kbps
Channel(s) : 2 channels
Sampling rate : 44.1 KHz
Bit depth : 16 bits
Stream size : 176 MiB (13%)
General
Complete name : D:\Torrents\HappyStream\HappyStream(1x1)-4.08.2010.flv
Format : Flash Video
File size : 1.93 GiB
Duration : 4h 50mn
Overall bit rate : 951 Kbps
Encoded date : Wed Aug 04 05:51:43 2010
audiochannels : 2.000
audiodevice : Line 1 (Virtual Audio Cable)
audioinputvolume : 100.000
fmeversion : 2.5.0.2086
presetname : Custom
videodevice : VHScrCap
videokeyframe_frequency : 5.000

Video
Format : VP6
Duration : 4h 50mn
Bit rate : 800 Kbps
Width : 1 024 pixels
Height : 768 pixels
Display aspect ratio : 4:3
Frame rate mode : Variable
Stream size : 1.62 GiB (84%)

Audio
Format : MPEG Audio
Format version : Version 1
Format profile : Layer 3
Mode : Joint stereo
Mode extension : MS Stereo
Duration : 4h 50mn
Bit rate mode : Constant
Bit rate : 128 Kbps
Channel(s) : 2 channels
Sampling rate : 44.1 KHz
Bit depth : 16 bits
Stream size : 266 MiB (13%)
General
Complete name : D:\Torrents\HappyStream\HappyStream(4x4)-4.08.2010.flv
Format : Flash Video
File size : 1.56 GiB
Duration : 3h 53mn
Overall bit rate : 953 Kbps
Encoded date : Wed Aug 04 01:16:53 2010
audiochannels : 2.000
audiodevice : Line 1 (Virtual Audio Cable)
audioinputvolume : 100.000
fmeversion : 2.5.0.2086
presetname : Custom
videodevice : VHScrCap
videokeyframe_frequency : 5.000

Video
Format : VP6
Duration : 3h 53mn
Bit rate : 800 Kbps
Width : 1 024 pixels
Height : 768 pixels
Display aspect ratio : 4:3
Frame rate mode : Constant
Frame rate : 25.000 fps
Bits/(Pixel*Frame) : 0.041
Stream size : 1.31 GiB (84%)

Audio
Format : MPEG Audio
Format version : Version 1
Format profile : Layer 3
Mode : Joint stereo
Mode extension : MS Stereo
Duration : 3h 53mn
Bit rate mode : Constant
Bit rate : 128 Kbps
Channel(s) : 2 channels
Sampling rate : 44.1 KHz
Bit depth : 16 bits
Stream size : 214 MiB (13%)
General
Complete name : D:\Torrents\HappyStream\HappyStream-6.08.2010.flv
Format : Flash Video
File size : 1.09 GiB
Duration : 2h 45mn
Overall bit rate : 943 Kbps
Encoded date : Fri Aug 06 15:32:37 2010
audiochannels : 2.000
audiodevice : Line 1 (Virtual Audio Cable)
audioinputvolume : 100.000
fmeversion : 2.5.0.2086
presetname : Custom
videodevice : VHScrCap
videokeyframe_frequency : 5.000

Video
Format : VP6
Duration : 2h 45mn
Bit rate : 800 Kbps
Width : 1 024 pixels
Height : 768 pixels
Display aspect ratio : 4:3
Frame rate mode : Constant
Frame rate : 25.000 fps
Bits/(Pixel*Frame) : 0.041
Stream size : 945 MiB (85%)

Audio
Format : MPEG Audio
Format version : Version 1
Format profile : Layer 3
Mode : Joint stereo
Mode extension : MS Stereo
Duration : 2h 45mn
Bit rate mode : Constant
Bit rate : 128 Kbps
Channel(s) : 2 channels
Sampling rate : 44.1 KHz
Bit depth : 16 bits
Stream size : 151 MiB (14%)
General
Complete name : D:\Torrents\HappyStream\HappyStream-9.08.2010.flv
Format : Flash Video
File size : 1.63 GiB
Duration : 4h 5mn
Overall bit rate : 953 Kbps
Encoded date : Mon Aug 09 15:57:57 2010
audiochannels : 2.000
audiodevice : Line 1 (Virtual Audio Cable)
audioinputvolume : 100.000
fmeversion : 2.5.0.2086
presetname : Custom
videodevice : VHScrCap
videokeyframe_frequency : 5.000

Video
Format : VP6
Duration : 4h 5mn
Bit rate : 800 Kbps
Width : 1 024 pixels
Height : 768 pixels
Display aspect ratio : 4:3
Frame rate mode : Constant
Frame rate : 25.000 fps
Bits/(Pixel*Frame) : 0.041
Stream size : 1.37 GiB (84%)

Audio
Format : MPEG Audio
Format version : Version 1
Format profile : Layer 3
Mode : Joint stereo
Mode extension : MS Stereo
Duration : 4h 5mn
Bit rate mode : Constant
Bit rate : 128 Kbps
Channel(s) : 2 channels
Sampling rate : 44.1 KHz
Bit depth : 16 bits
Stream size : 225 MiB (13%)
General
Complete name : D:\Torrents\HappyStream\HappyStream-13.08.2010.flv
Format : Flash Video
File size : 1.22 GiB
Duration : 3h 3mn
Overall bit rate : 953 Kbps
Encoded date : Fri Aug 13 17:27:13 2010
audiochannels : 2.000
audiodevice : Line 1 (Virtual Audio Cable)
audioinputvolume : 100.000
fmeversion : 2.5.0.2086
presetname : Custom
videodevice : VHScrCap
videokeyframe_frequency : 5.000

Video
Format : VP6
Duration : 3h 3mn
Bit rate : 800 Kbps
Width : 1 024 pixels
Height : 768 pixels
Display aspect ratio : 4:3
Frame rate mode : Constant
Frame rate : 25.000 fps
Bits/(Pixel*Frame) : 0.041
Stream size : 1.03 GiB (84%)

Audio
Format : MPEG Audio
Format version : Version 1
Format profile : Layer 3
Mode : Joint stereo
Mode extension : MS Stereo
Duration : 3h 3mn
Bit rate mode : Constant
Bit rate : 128 Kbps
Channel(s) : 2 channels
Sampling rate : 44.1 KHz
Bit depth : 16 bits
Stream size : 168 MiB (13%)
General
Complete name : D:\Torrents\HappyStream\HappyStream-15.08.2010.flv
Format : Flash Video
File size : 1.29 GiB
Duration : 3h 13mn
Overall bit rate : 954 Kbps
Encoded date : Sun Aug 15 18:33:58 2010
audiochannels : 2.000
audiodevice : Line 1 (Virtual Audio Cable)
audioinputvolume : 100.000
fmeversion : 2.5.0.2086
presetname : Custom
videodevice : VHScrCap
videokeyframe_frequency : 5.000

Video
Format : VP6
Duration : 3h 13mn
Bit rate : 800 Kbps
Width : 1 024 pixels
Height : 768 pixels
Display aspect ratio : 4:3
Frame rate mode : Variable
Stream size : 1.08 GiB (84%)

Audio
Format : MPEG Audio
Format version : Version 1
Format profile : Layer 3
Mode : Joint stereo
Mode extension : MS Stereo
Duration : 3h 13mn
Bit rate mode : Constant
Bit rate : 128 Kbps
Channel(s) : 2 channels
Sampling rate : 44.1 KHz
Bit depth : 16 bits
Stream size : 177 MiB (13%)
General
Complete name : D:\Torrents\HappyStream\HappyStream-17.08.2010.flv
Format : Flash Video
File size : 1.88 GiB
Duration : 4h 43mn
Overall bit rate : 953 Kbps
Encoded date : Tue Aug 17 12:02:10 2010
audiochannels : 2.000
audiodevice : Line 1 (Virtual Audio Cable)
audioinputvolume : 100.000
fmeversion : 2.5.0.2086
presetname : Custom
videodevice : VHScrCap
videokeyframe_frequency : 5.000

Video
Format : VP6
Duration : 4h 43mn
Bit rate : 800 Kbps
Width : 1 024 pixels
Height : 768 pixels
Display aspect ratio : 4:3
Frame rate mode : Constant
Frame rate : 25.000 fps
Bits/(Pixel*Frame) : 0.041
Stream size : 1.58 GiB (84%)

Audio
Format : MPEG Audio
Format version : Version 1
Format profile : Layer 3
Mode : Joint stereo
Mode extension : MS Stereo
Duration : 4h 43mn
Bit rate mode : Constant
Bit rate : 128 Kbps
Channel(s) : 2 channels
Sampling rate : 44.1 KHz
Bit depth : 16 bits
Stream size : 259 MiB (13%)
General
Complete name : D:\Torrents\HappyStream\HappyStream-18.08.2010.flv
Format : Flash Video
File size : 1.34 GiB
Duration : 3h 20mn
Overall bit rate : 954 Kbps
Encoded date : Wed Aug 18 14:02:19 2010
audiochannels : 2.000
audiodevice : Line 1 (Virtual Audio Cable)
audioinputvolume : 100.000
fmeversion : 2.5.0.2086
presetname : Custom
videodevice : VHScrCap
videokeyframe_frequency : 5.000

Video
Format : VP6
Duration : 3h 20mn
Bit rate : 800 Kbps
Width : 1 024 pixels
Height : 768 pixels
Display aspect ratio : 4:3
Frame rate mode : Constant
Frame rate : 25.000 fps
Bits/(Pixel*Frame) : 0.041
Stream size : 1.12 GiB (84%)

Audio
Format : MPEG Audio
Format version : Version 1
Format profile : Layer 3
Mode : Joint stereo
Mode extension : MS Stereo
Duration : 3h 20mn
Bit rate mode : Constant
Bit rate : 128 Kbps
Channel(s) : 2 channels
Sampling rate : 44.1 KHz
Bit depth : 16 bits
Stream size : 183 MiB (13%)
General
Complete name : D:\Torrents\HappyStream\HappyStream-20.08.2010.flv
Format : Flash Video
File size : 1.51 GiB
Duration : 3h 48mn
Overall bit rate : 947 Kbps
Encoded date : Thu Aug 19 21:46:38 2010
audiochannels : 2.000
audiodevice : Line 1 (Virtual Audio Cable)
audioinputvolume : 100.000
fmeversion : 2.5.0.2086
presetname : Custom
videodevice : VHScrCap
videokeyframe_frequency : 5.000

Video
Format : VP6
Duration : 3h 48mn
Bit rate : 800 Kbps
Width : 1 024 pixels
Height : 768 pixels
Display aspect ratio : 4:3
Frame rate mode : Constant
Frame rate : 25.000 fps
Bits/(Pixel*Frame) : 0.041
Stream size : 1.28 GiB (84%)

Audio
Format : MPEG Audio
Format version : Version 1
Format profile : Layer 3
Mode : Joint stereo
Mode extension : MS Stereo
Duration : 3h 48mn
Bit rate mode : Constant
Bit rate : 128 Kbps
Channel(s) : 2 channels
Sampling rate : 44.1 KHz
Bit depth : 16 bits
Stream size : 209 MiB (14%)
General
Complete name : D:\Torrents\HappyStream\HappyStream-21.08.2010.flv
Format : Flash Video
File size : 2.38 GiB
Duration : 5h 57mn
Overall bit rate : 955 Kbps
Encoded date : Fri Aug 20 18:19:16 2010
audiochannels : 2.000
audiodevice : Line 1 (Virtual Audio Cable)
audioinputvolume : 100.000
fmeversion : 2.5.0.2086
presetname : Custom
videodevice : VHScrCap
videokeyframe_frequency : 5.000

Video
Format : VP6
Duration : 5h 57mn
Bit rate : 800 Kbps
Width : 1 024 pixels
Height : 768 pixels
Display aspect ratio : 4:3
Frame rate mode : Variable
Stream size : 2.00 GiB (84%)

Audio
Format : MPEG Audio
Format version : Version 1
Format profile : Layer 3
Mode : Joint stereo
Mode extension : MS Stereo
Duration : 5h 57mn
Bit rate mode : Constant
Bit rate : 128 Kbps
Channel(s) : 2 channels
Sampling rate : 44.1 KHz
Bit depth : 16 bits
Stream size : 327 MiB (13%)
General
Complete name : D:\Torrents\HappyStream\HappyStream-27.08.2010.flv
Format : Flash Video
File size : 1.32 GiB
Duration : 3h 17mn
Overall bit rate : 953 Kbps
Encoded date : Fri Aug 27 19:03:15 2010
audiochannels : 2.000
audiodevice : Line 1 (Virtual Audio Cable)
audioinputvolume : 100.000
fmeversion : 2.5.0.2086
presetname : Custom
videodevice : VHScrCap
videokeyframe_frequency : 5.000

Video
Format : VP6
Duration : 3h 17mn
Bit rate : 800 Kbps
Width : 1 024 pixels
Height : 768 pixels
Display aspect ratio : 4:3
Frame rate mode : Variable
Stream size : 1.10 GiB (84%)

Audio
Format : MPEG Audio
Format version : Version 1
Format profile : Layer 3
Mode : Joint stereo
Mode extension : MS Stereo
Duration : 3h 17mn
Bit rate mode : Constant
Bit rate : 128 Kbps
Channel(s) : 2 channels
Sampling rate : 44.1 KHz
Bit depth : 16 bits
Stream size : 181 MiB (13%)
General
Complete name : D:\Torrents\HappyStream\HappyStream(Part_I)-28.08.2010.flv
Format : Flash Video
File size : 925 MiB
Duration : 2h 15mn
Overall bit rate : 953 Kbps
Encoded date : Sun Aug 29 01:54:54 2010
audiochannels : 2.000
audiodevice : Line 1 (Virtual Audio Cable)
audioinputvolume : 100.000
fmeversion : 2.5.0.2086
presetname : Custom
videodevice : VHScrCap
videokeyframe_frequency : 5.000

Video
Format : VP6
Duration : 2h 15mn
Bit rate : 800 Kbps
Width : 1 024 pixels
Height : 768 pixels
Display aspect ratio : 4:3
Frame rate mode : Constant
Frame rate : 25.000 fps
Bits/(Pixel*Frame) : 0.041
Stream size : 776 MiB (84%)

Audio
Format : MPEG Audio
Format version : Version 1
Format profile : Layer 3
Mode : Joint stereo
Mode extension : MS Stereo
Duration : 2h 15mn
Bit rate mode : Constant
Bit rate : 128 Kbps
Channel(s) : 2 channels
Sampling rate : 44.1 KHz
Bit depth : 16 bits
Stream size : 124 MiB (13%)
General
Complete name : D:\Torrents\HappyStream\HappyStream(Part_II)-28.08.2010.flv
Format : Flash Video
File size : 627 MiB
Duration : 1h 31mn
Overall bit rate : 954 Kbps
Encoded date : Sun Aug 29 04:13:58 2010
audiochannels : 2.000
audiodevice : Line 1 (Virtual Audio Cable)
audioinputvolume : 100.000
fmeversion : 2.5.0.2086
presetname : Custom
videodevice : VHScrCap
videokeyframe_frequency : 5.000

Video
Format : VP6
Duration : 1h 31mn
Bit rate : 800 Kbps
Width : 1 024 pixels
Height : 768 pixels
Display aspect ratio : 4:3
Frame rate mode : Constant
Frame rate : 25.000 fps
Bits/(Pixel*Frame) : 0.041
Stream size : 526 MiB (84%)

Audio
Format : MPEG Audio
Format version : Version 1
Format profile : Layer 3
Mode : Joint stereo
Mode extension : MS Stereo
Duration : 1h 31mn
Bit rate mode : Constant
Bit rate : 128 Kbps
Channel(s) : 2 channels
Sampling rate : 44.1 KHz
Bit depth : 16 bits
Stream size : 84.1 MiB (13%)
General
Complete name : D:\Torrents\HappyStream\HappyStream-30.08.2010.flv
Format : Flash Video
File size : 449 MiB
Duration : 1h 1mn
Overall bit rate : 1 018 Kbps
Encoded date : Mon Aug 30 00:26:37 2010
audiochannels : 2.000
audiodevice : Line 1 (Virtual Audio Cable)
audioinputvolume : 100.000
fmeversion : 2.5.0.2086
presetname : Custom
videodevice : VHScrCap
videokeyframe_frequency : 5.000

Video
Format : VP6
Duration : 1h 1mn
Bit rate : 800 Kbps
Width : 1 024 pixels
Height : 768 pixels
Display aspect ratio : 4:3
Frame rate mode : Constant
Frame rate : 25.000 fps
Bits/(Pixel*Frame) : 0.041
Stream size : 353 MiB (79%)

Audio
Format : MPEG Audio
Format version : Version 1
Format profile : Layer 3
Mode : Joint stereo
Mode extension : MS Stereo
Duration : 1h 1mn
Bit rate mode : Constant
Bit rate : 192 Kbps
Channel(s) : 2 channels
Sampling rate : 44.1 KHz
Bit depth : 16 bits
Stream size : 84.7 MiB (19%)
General
Complete name : D:\Torrents\HappyStream\HappyStream-1.09.2010.flv
Format : Flash Video
File size : 1.87 GiB
Duration : 4h 22mn
Overall bit rate : 1 018 Kbps
Encoded date : Wed Sep 01 06:31:55 2010
audiochannels : 2.000
audiodevice : Line 1 (Virtual Audio Cable)
audioinputvolume : 100.000
fmeversion : 2.5.0.2086
presetname : Custom
videodevice : VHScrCap
videokeyframe_frequency : 5.000

Video
Format : VP6
Duration : 4h 22mn
Bit rate : 800 Kbps
Width : 1 024 pixels
Height : 768 pixels
Display aspect ratio : 4:3
Frame rate mode : Variable
Stream size : 1.47 GiB (79%)

Audio
Format : MPEG Audio
Format version : Version 1
Format profile : Layer 3
Mode : Joint stereo
Mode extension : MS Stereo
Duration : 4h 22mn
Bit rate mode : Constant
Bit rate : 192 Kbps
Channel(s) : 2 channels
Sampling rate : 44.1 KHz
Bit depth : 16 bits
Stream size : 360 MiB (19%)
General
Complete name : D:\Torrents\HappyStream\HappyStream-6.09.2010.flv
Format : Flash Video
File size : 1.88 GiB
Duration : 4h 26mn
Overall bit rate : 1 006 Kbps
Encoded date : Mon Sep 06 10:14:13 2010
audiochannels : 2.000
audiodevice : U
audioinputvolume : 100.000
fmeversion : 2.5.0.2086
presetname : Custom
videodevice : VHScrCap
videokeyframe_frequency : 5.000

Video
Format : VP6
Duration : 4h 26mn
Bit rate : 800 Kbps
Width : 1 024 pixels
Height : 768 pixels
Display aspect ratio : 4:3
Frame rate mode : Constant
Frame rate : 25.000 fps
Bits/(Pixel*Frame) : 0.041
Stream size : 1.49 GiB (80%)

Audio
Format : MPEG Audio
Format version : Version 1
Format profile : Layer 3
Mode : Joint stereo
Mode extension : MS Stereo
Duration : 4h 26mn
Bit rate mode : Constant
Bit rate : 192 Kbps
Channel(s) : 2 channels
Sampling rate : 44.1 KHz
Bit depth : 16 bits
Stream size : 367 MiB (19%)
General
Complete name : D:\Torrents\HappyStream\HappyStream-7.09.2010.flv
Format : Flash Video
File size : 2.85 GiB
Duration : 6h 40mn
Overall bit rate : 1 018 Kbps
Encoded date : Mon Sep 06 22:33:02 2010
audiochannels : 2.000
audiodevice : Line 1 (Virtual Audio Cable)
audioinputvolume : 100.000
fmeversion : 2.5.0.2086
presetname : Custom
videodevice : VHScrCap
videokeyframe_frequency : 5.000

Video
Format : VP6
Duration : 6h 40mn
Bit rate : 800 Kbps
Width : 1 024 pixels
Height : 768 pixels
Display aspect ratio : 4:3
Frame rate mode : Constant
Frame rate : 25.000 fps
Bits/(Pixel*Frame) : 0.041
Stream size : 2.24 GiB (79%)

Audio
Format : MPEG Audio
Format version : Version 1
Format profile : Layer 3
Mode : Joint stereo
Mode extension : MS Stereo
Duration : 6h 40mn
Bit rate mode : Constant
Bit rate : 192 Kbps
Channel(s) : 2 channels
Sampling rate : 44.1 KHz
Bit depth : 16 bits
Stream size : 551 MiB (19%)
General
Complete name : D:\Torrents\HappyStream\HappyStream-23.09.2010(vol.1).flv
Format : Flash Video
File size : 350 MiB
Duration : 48mn 29s
Overall bit rate : 1 010 Kbps
Encoded date : Thu Sep 23 22:34:23 2010
audiochannels : 2.000
audiodevice : Line 1 (Virtual Audio Cable)
audioinputvolume : 100.000
fmeversion : 2.5.0.2086
presetname : Custom
videodevice : VHScrCap
videokeyframe_frequency : 5.000

Video
Format : VP6
Duration : 48mn 29s
Bit rate : 800 Kbps
Width : 1 024 pixels
Height : 768 pixels
Display aspect ratio : 4:3
Frame rate mode : Variable
Stream size : 277 MiB (79%)

Audio
Format : MPEG Audio
Format version : Version 1
Format profile : Layer 3
Mode : Joint stereo
Mode extension : MS Stereo
Duration : 48mn 29s
Bit rate mode : Constant
Bit rate : 192 Kbps
Channel(s) : 2 channels
Sampling rate : 44.1 KHz
Bit depth : 16 bits
Stream size : 66.6 MiB (19%)
General
Complete name : D:\Torrents\HappyStream\HappyStream-23.09.2010(vol.2).flv
Format : Flash Video
File size : 1 021 MiB
Duration : 2h 21mn
Overall bit rate : 1 011 Kbps
Encoded date : Thu Sep 23 23:23:10 2010
audiochannels : 2.000
audiodevice : Line 1 (Virtual Audio Cable)
audioinputvolume : 100.000
fmeversion : 2.5.0.2086
presetname : Custom
videodevice : VHScrCap
videokeyframe_frequency : 5.000

Video
Format : VP6
Duration : 2h 21mn
Bit rate : 800 Kbps
Width : 1 024 pixels
Height : 768 pixels
Display aspect ratio : 4:3
Frame rate mode : Variable
Stream size : 808 MiB (79%)

Audio
Format : MPEG Audio
Format version : Version 1
Format profile : Layer 3
Mode : Joint stereo
Mode extension : MS Stereo
Duration : 2h 21mn
Bit rate mode : Constant
Bit rate : 192 Kbps
Channel(s) : 2 channels
Sampling rate : 44.1 KHz
Bit depth : 16 bits
Stream size : 194 MiB (19%)


Трекер:  [ 01-Окт-2011 20:18 ]

  

Скачать .torrent

Размер .torrent файла 76 KB


Размер: 56.3 GB
Хэш (hash) релиза: 3d26fc1f94b17b2ecd53682ef30b325fadb90691
Подписка на обновления:

Еще никто не оставлял запись к записи скачать торрент StarCraft 2 - HappyStream . Будь первым!

!Обратная связь