Скачать через торрент [MULT] Босс-молокосос The Boss Baby бесплатно русская версия torrent активатор

Если у вас наблюдаются проблемы со скриншотами, переходом по ссылками, скачиванием торрентов - проблемы в блокировщике рекламы AdBlock. #хорошегоДня!


Статистика раздачи
Размер:  1.45 GB   |    Зарегистрирован:  2 месяца 9 дней   |    .torrent скачан:  28 раз   |   
Раздают:  1  
   
Загрузка...
 
Автор Сообщение

Galfimbul

avatar Galfimbul


Босс-молокосос / The Boss Baby«Прирождённый лидер»
Год выпуска: 2017
Страна: США / DreamWorks Animation
Жанр: мультфильм, комедия, семейный
Продолжительность: 01:37:30
Перевод №1: Русский Профессиональный (полное дублирование) Blu-ray CEE
Перевод №2: Украинский Профессиональный (полное дублирование) Blu-ray CEE
Оригинальная дорожка: Есть
Субтитры: русские (форсированные), английские (полные, SDH)Режиссер: Том МакГрат / Tom McGrathРоли озвучивали: Алек Болдуин, Стив Бушеми, Джимми Киммел, Лиза Кудроу, Тоби Магуайр, Майлз Кристофер Бакши, Джеймс МакГрат, Конрад Вернон, ВивиЭнн Йи, Эрик Белл мл. и другие .Описание: Эта актуальная во все времена история для взрослых и детей рассказывается от лица семилетнего брата новорожденного — фантазера Тима, который ревнует его к родителям. Но главный герой — совсем не простой ребенок, он обладает лидерскими задатками, уже носит деловые костюмы и во всем видит бизнес-задачу.
Однажды Тим узнает о готовящемся заговоре, целью которого является уничтожение любви, и организовал его директор компании «Puppy Co». Но одному Тиму не по силам его остановить. Мальчику предстоит объединиться со своим «нелюбимым» братом, чтобы спасти родителей и вернуть порядок на Земле..
Релиз группы Качество: BDRip / рип с Blu-ray СЕЕ 1080p
Формат: MP4
Видео кодек: H.264
Аудио кодек: AAC
Видео: 960х408 AR:2.35 1740 kbps 23.976 fps
Аудио №1: [Russian] 2ch 48 kHz 128 kbps - Профессиональный (полное дублирование) Blu-ray СЕЕ
Аудио №2: [Ukrainian] 2ch 48 kHz 128 kbps - Профессиональный (полное дублирование) Blu-ray СЕЕ
Аудио №3: [English] 2ch 48 kHz 128 kbps - Оригинал
avs [info]: 960x408p 1:1 @ 24000/1001 fps (cfr)
x264 [info]: using SAR=1/1
x264 [info]: using cpu capabilities: MMX2 SSE2Fast SSSE3 SSE4.2 AVX FMA3 AVX2 LZCNT BMI2
x264 [info]: profile High, level 4.1

x264 [info]: frame I:1444 Avg QP:14.36 size: 54756
x264 [info]: frame P:39920 Avg QP:18.66 size: 16703
x264 [info]: frame B:98916 Avg QP:21.00 size: 5325
x264 [info]: consecutive B-frames: 5.6% 7.0% 13.9% 41.0% 12.0% 12.5% 3.2% 3.1% 0.8% 0.3% 0.6%
x264 [info]: mb I I16..4: 7.0% 57.6% 35.4%
x264 [info]: mb P I16..4: 2.5% 11.2% 3.6% P16..4: 29.4% 32.6% 11.2% 0.0% 0.0% skip: 9.5%
x264 [info]: mb B I16..4: 0.3% 1.3% 0.4% B16..8: 28.8% 16.9% 3.5% direct: 3.2% skip:45.6% L0:39.4% L1:44.1% BI:16.5%
x264 [info]: 8x8 transform intra:63.7% inter:54.9%
x264 [info]: direct mvs spatial:91.3% temporal:8.7%
x264 [info]: coded y,uvDC,uvAC intra: 72.6% 81.1% 61.5% inter: 15.1% 17.6% 10.7%
x264 [info]: i16 v,h,dc,p: 17% 15% 5% 63%
x264 [info]: i8 v,h,dc,ddl,ddr,vr,hd,vl,hu: 14% 13% 8% 8% 10% 10% 12% 11% 14%
x264 [info]: i4 v,h,dc,ddl,ddr,vr,hd,vl,hu: 17% 13% 8% 8% 12% 11% 11% 9% 11%
x264 [info]: i8c dc,h,v,p: 30% 30% 20% 20%
x264 [info]: Weighted P-Frames: Y:7.1% UV:5.4%
x264 [info]: ref P L0: 55.9% 8.2% 15.9% 6.4% 4.5% 3.7% 3.0% 2.1% 0.2% 0.0%
x264 [info]: ref B L0: 79.6% 9.9% 5.0% 2.3% 1.7% 1.0% 0.5%
x264 [info]: ref B L1: 95.1% 4.9%
x264 [info]: kb/s:1740.01

encoded 140280 frames, 17.06 fps, 1740.01 kb/s
GeneralComplete name : D:\Torrents\The Boss Baby.2017.BDRip.x264.960x.rip by Frost O.S.mp4Format : MPEG-4Format profile : Base MediaCodec ID : isom (isom)File size : 1.45 GiBDuration : 1 h 37 minOverall bit rate mode : VariableOverall bit rate : 2 132 kb/sEncoded date : UTC 2017-08-13 14:38:58Tagged date : UTC 2017-08-13 14:38:58Writing application : My MP4Box GUI 0.6.0.6

VideoID : 1Format : AVCFormat/Info : Advanced Video CodecFormat profile : High@L4.1Format settings, CABAC : YesFormat settings, ReFrames : 8 framesCodec ID : avc1Codec ID/Info : Advanced Video CodingDuration : 1 h 37 minBit rate : 1 740 kb/sMaximum bit rate : 8 337 kb/sWidth : 960 pixelsHeight : 408 pixelsDisplay aspect ratio : 2.35:1Frame rate mode : ConstantFrame rate : 23.976 (24000/1001) FPSColor space : YUVChroma subsampling : 4:2:0Bit depth : 8 bitsScan type : ProgressiveBits/(Pixel*Frame) : 0.185Stream size : 1.19 GiB (82%)Title : The Boss Baby.2017.BDRip.x264.960x.rip by Frost O.S.mp4Writing library : x264 core 148 r2744 b97ae06Encoding settings : cabac=1 / ref=8 / deblock=1:-2:-1 / analyse=0x3:0x113 / me=umh / subme=11 / psy=1 / psy_rd=0.75:0.00 / mixed_ref=1 / me_range=32 / chroma_me=1 / trellis=2 / 8x8dct=1 / cqm=0 / deadzone=21,11 / fast_pskip=0 / chroma_qp_offset=-2 / threads=6 / lookahead_threads=1 / sliced_threads=0 / nr=0 / decimate=0 / interlaced=0 / bluray_compat=0 / constrained_intra=0 / bframes=10 / b_pyramid=2 / b_adapt=2 / b_bias=0 / direct=3 / weightb=1 / open_gop=0 / weightp=2 / keyint=250 / keyint_min=23 / scenecut=40 / intra_refresh=0 / rc=2pass / mbtree=0 / bitrate=1740 / ratetol=1.0 / qcomp=0.70 / qpmin=0 / qpmax=69 / qpstep=4 / cplxblur=20.0 / qblur=0.5 / ip_ratio=1.40 / pb_ratio=1.30 / aq=2:0.80Encoded date : UTC 2017-08-13 08:44:56Tagged date : UTC 2017-08-13 14:39:29Color range : LimitedColor primaries : BT.709Transfer characteristics : BT.709Matrix coefficients : BT.709

Audio #1ID : 2Format : AACFormat/Info : Advanced Audio CodecFormat profile : LCCodec ID : 40Duration : 1 h 37 minBit rate mode : VariableBit rate : 128 kb/sMaximum bit rate : 138 kb/sChannel(s) : 2 channelsChannel positions : Front: L RSampling rate : 48.0 kHzFrame rate : 46.875 FPS (1024 spf)Compression mode : LossyStream size : 89.3 MiB (6%)Title : Russian / Dub, Blu-ray CEEEncoded date : UTC 2017-08-13 14:39:12Tagged date : UTC 2017-08-13 14:39:29

Audio #2ID : 3Format : AACFormat/Info : Advanced Audio CodecFormat profile : LCCodec ID : 40Duration : 1 h 37 minBit rate mode : VariableBit rate : 128 kb/sMaximum bit rate : 137 kb/sChannel(s) : 2 channelsChannel positions : Front: L RSampling rate : 48.0 kHzFrame rate : 46.875 FPS (1024 spf)Compression mode : LossyStream size : 89.3 MiB (6%)Title : Ukrainian / Dub, Blu-ray CEEEncoded date : UTC 2017-08-13 14:39:20Tagged date : UTC 2017-08-13 14:39:29

Audio #3ID : 4Format : AACFormat/Info : Advanced Audio CodecFormat profile : LCCodec ID : 40Duration : 1 h 37 minBit rate mode : VariableBit rate : 128 kb/sMaximum bit rate : 138 kb/sChannel(s) : 2 channelsChannel positions : Front: L RSampling rate : 48.0 kHzFrame rate : 46.875 FPS (1024 spf)Compression mode : LossyStream size : 89.3 MiB (6%)Title : English / OriginalEncoded date : UTC 2017-08-13 14:39:23Tagged date : UTC 2017-08-13 14:39:29

Text #1ID : 5Format : Timed TextCodec ID : tx3gDuration : 1 h 25 minBit rate mode : VariableBit rate : 1 b/sStream size : 520 Bytes (0%)Title : Russian / ForcedForced : NoEncoded date : UTC 2017-08-13 14:39:29Tagged date : UTC 2017-08-13 14:39:29

Text #2ID : 6Format : Timed TextCodec ID : tx3gDuration : 1 h 37 minBit rate mode : VariableBit rate : 72 b/sStream size : 51.0 KiB (0%)Title : English / FullForced : NoEncoded date : UTC 2017-08-13 14:39:29Tagged date : UTC 2017-08-13 14:39:29

Text #3ID : 7Format : Timed TextCodec ID : tx3gDuration : 1 h 37 minBit rate mode : VariableBit rate : 127 b/sStream size : 90.9 KiB (0%)Title : English / SDHForced : NoEncoded date : UTC 2017-08-13 14:39:29Tagged date : UTC 2017-08-13 14:39:29


Трекер:  [ 13-Авг-2017 19:42 ]

  

Скачать .torrent

Размер .torrent файла 15 KB


Размер: 1.45 GB
Хэш (hash) релиза: 30d083252eded1fd67154577507ef86e6848aed0

Торренты, похожие на [MULT] Босс-молокосос The Boss Baby скачать торрент

Форум Название Автор Размер S L Добавлен
Видео (Фильмы/Клипы) ·· [MULT] Босс-молокосос / The Boss Baby (Том МакГрат / Tom McGrath) [2017, мультфильм, комедия, семейный, HDRip] [MP4, 480x] Dub Blu-ray CEE Galfimbul 461732921440 MB 0 0 1502642586

19:43

13-Авг-17

Видео (Фильмы/Клипы) ·· [MULT] Босс-молокосос / The Boss Baby (Том МакГрат / Tom McGrath) [2017, мультфильм, комедия, семейный, HDRip] [3GP, 320x] Dub Blu-ray CEE Galfimbul 351417534335 MB 0 0 1502639019

18:43

13-Авг-17

Еще никто не оставлял запись к записи скачать торрент [MULT] Босс-молокосос The Boss Baby . Будь первым!

!Обратная связь