Скачать через торрент [MULT] Босс-молокосос The Boss Baby бесплатно русская версия torrent активатор

Если у вас наблюдаются проблемы со скриншотами, переходом по ссылками, скачиванием торрентов - проблемы в блокировщике рекламы AdBlock. #хорошегоДня!


Статистика раздачи
Размер:  440 MB   |    Зарегистрирован:  2 месяца 9 дней   |    .torrent скачан:  16 раз   |   
Раздают:  2  
   
Загрузка...
 
Автор Сообщение

Galfimbul

avatar Galfimbul


Босс-молокосос / The Boss Baby«Прирождённый лидер»
Год выпуска: 2017
Страна: США / DreamWorks Animation
Жанр: мультфильм, комедия, семейный
Продолжительность: 01:37:30
Перевод: Русский Профессиональный (полное дублирование) Blu-ray CEE
Субтитры: нетРежиссер: Том МакГрат / Tom McGrathРоли озвучивали: Алек Болдуин, Стив Бушеми, Джимми Киммел, Лиза Кудроу, Тоби Магуайр, Майлз Кристофер Бакши, Джеймс МакГрат, Конрад Вернон, ВивиЭнн Йи, Эрик Белл мл. и другие .Описание: Эта актуальная во все времена история для взрослых и детей рассказывается от лица семилетнего брата новорожденного — фантазера Тима, который ревнует его к родителям. Но главный герой — совсем не простой ребенок, он обладает лидерскими задатками, уже носит деловые костюмы и во всем видит бизнес-задачу.
Однажды Тим узнает о готовящемся заговоре, целью которого является уничтожение любви, и организовал его директор компании «Puppy Co». Но одному Тиму не по силам его остановить. Мальчику предстоит объединиться со своим «нелюбимым» братом, чтобы спасти родителей и вернуть порядок на Земле..
Релиз группы Качество: HDRip / рип с BDRip 720p
Формат: MP4
Видео кодек: XviD
Аудио кодек: AAC
Видео: 480х200 AR:2.40 500 kbps 23.976 fps
Аудио: [Russian] 2ch 48 kHz 128 kbps - Профессиональный (полное дублирование) Blu-ray СЕЕ
GeneralComplete name : D:\Torrents\The Boss Baby.2017.HDRip.XviD.480x.rip by Frost O.S.mp4Format : MPEG-4Format profile : Base MediaCodec ID : isom (isom)File size : 440 MiBDuration : 1 h 37 minOverall bit rate mode : VariableOverall bit rate : 631 kb/sEncoded date : UTC 2017-08-13 14:46:37Tagged date : UTC 2017-08-13 14:46:37Writing application : My MP4Box GUI 0.6.0.6

VideoID : 1Format : MPEG-4 VisualFormat profile : Advanced Simple@L5Format settings, BVOP : YesFormat settings, QPel : NoFormat settings, GMC : No warppointsFormat settings, Matrix : CustomCodec ID : 20Duration : 1 h 37 minBit rate mode : VariableBit rate : 500 kb/sMaximum bit rate : 2 505 kb/sWidth : 480 pixelsHeight : 200 pixelsDisplay aspect ratio : 2.40:1Frame rate mode : VariableFrame rate : 23.976 (24000/1001) FPSMinimum frame rate : 11.988 FPSMaximum frame rate : 23.976 FPSColor space : YUVChroma subsampling : 4:2:0Bit depth : 8 bitsScan type : ProgressiveCompression mode : LossyBits/(Pixel*Frame) : 0.217Stream size : 348 MiB (79%)Title : The Boss Baby.2017.HDRip.XviD.480x.rip by Frost O.S.mp4Writing library : XviD 1.2.1 (UTC 2008-12-04)Encoded date : UTC 2017-08-13 14:46:37Tagged date : UTC 2017-08-13 14:46:47

AudioID : 2Format : AACFormat/Info : Advanced Audio CodecFormat profile : LCCodec ID : 40Duration : 1 h 37 minBit rate mode : VariableBit rate : 128 kb/sMaximum bit rate : 138 kb/sChannel(s) : 2 channelsChannel positions : Front: L RSampling rate : 48.0 kHzFrame rate : 46.875 FPS (1024 spf)Compression mode : LossyStream size : 89.3 MiB (20%)Title : Russian / Dub, Blu-ray CEEEncoded date : UTC 2017-08-13 14:46:43Tagged date : UTC 2017-08-13 14:46:47


Трекер:  [ 13-Авг-2017 19:42 ]

  

Скачать .torrent

Размер .torrent файла 17 KB


Размер: 440 MB
Хэш (hash) релиза: 49a7b5a56653f616479db7df5b755ba2cd6ad1ca

Еще никто не оставлял запись к записи скачать торрент [MULT] Босс-молокосос The Boss Baby . Будь первым!

!Обратная связь