Скачать через торрент музыку бесплатно без регистрации torrent

Если у вас наблюдаются проблемы со скриншотами, переходом по ссылками, скачиванием торрентов - проблемы в блокировщике рекламы AdBlock. #хорошегоДня!


Статистика раздачи
Размер:  145 MB   |    Зарегистрирован:  2 месяца 6 дней   |    .torrent скачан:  13 раз   |   
Раздают:  1  
   
Загрузка...
 
Автор Сообщение

Galfimbul

avatar Galfimbul


C.Y.B.E.R.F.U.N.K. / II

Жанр: Hardcore, Techno
Носитель: CD
Страна-производитель диска (релиза): Germany
Год издания: 1992
Издатель (лейбл): Wunderwerke
Номер по каталогу: WW 02 CD
Страна исполнителя (группы): Germany
Аудиокодек: FLAC (*.flac)
Тип рипа: image+.cue
Битрейт аудио: lossless
Продолжительность: 0:22:55
Источник (релизер): Собственный рип
Наличие сканов в содержимом раздачи: нет
Треклист:
1 Peak Society 5:06
2 Wunderbar 5:29
3 Kira Peak 5:41
4 Extasy Territory 5:33
Exact Audio Copy V1.0 beta 3 from 29. August 2011

Отчёт EAC об извлечении, выполненном 10. августа 2017, 18:50

C.Y.B.E.R.F.U.N.K. / II

Дисковод: Optiarc DVD RW AD-7200S Adapter: 3 ID: 0

Режим чтения : ДостоверностьИспользование точного потока : ДаОтключение кэша аудио : ДаИспользование указателей C2 : Нет

Коррекция смещения при чтении : 48Способность читать области Lead-in и Lead-out : НетЗаполнение пропущенных сэмплов тишиной : ДаУдаление блоков с тишиной в начале и конце : НетПри вычислениях CRC использовались нулевые сэмплы : ДаИнтерфейс : Установленный внешний ASPI-интерфейс

Выходной формат : Пользовательский кодировщикВыбранный битрейт : 1024 kBit/sКачество : ВысокийДобавление ID3-тега : НетУтилита сжатия : C:\Program Files\Exact Audio Copy\FLAC\FLAC.EXEДополнительные параметры : -6 -V -T "ARTIST=%artist%" -T "TITLE=%title%" -T "ALBUM=%albumtitle%" -T "DATE=%year%" -T "TRACKNUMBER=%tracknr%" -T "GENRE=%genre%" -T "COMMENT=%comment%" -T "BAND=%albuminterpret%" -T "ALBUMARTIST=%albuminterpret%" -T "COMPOSER=%composer%" %haslyrics%--tag-from-file=LYRICS="%lyricsfile%"%haslyrics% -T "DISCNUMBER=%cdnumber%" -T "TOTALDISCS=%totalcds%" -T "TOTALTRACKS=%numtracks%" %hascover%--picture="%coverfile%"%hascover% %source% -o %dest%

TOC извлечённого CD

Трек | Старт | Длительность | Начальный сектор | Конечный сектор --------------------------------------------------------------------- 1 | 0:00.00 | 5:07.45 | 0 | 23069 2 | 5:07.45 | 5:29.45 | 23070 | 47789 3 | 10:37.15 | 5:42.60 | 47790 | 73499 4 | 16:20.00 | 5:35.15 | 73500 | 98639

Характеристики диапазона извлечения и сообщения об ошибках

Выбранный диапазон

Имя файла C:\Users\ASUS\Saved Games\C.Y.B.E.R.F.U.N.K. - II.wav

Пиковый уровень 70.8 % Скорость извлечения 3.4 X Качество диапазона 100.0 % CRC теста D97D7C20 CRC копии D97D7C20 Копирование... OK

Ошибок не произошло

AccurateRip: сводка

Трек 1 отсутствует в базе данныхТрек 2 отсутствует в базе данныхТрек 3 отсутствует в базе данныхТрек 4 отсутствует в базе данных

Ни одного трека нет в базе AccurateRip

Конец отчёта
REM GENRE TechnoREM DATE 1992REM DISCID 33052304REM COMMENT "ExactAudioCopy v1.0b3"PERFORMER "C.Y.B.E.R.F.U.N.K."TITLE "II "FILE "C.Y.B.E.R.F.U.N.K. - II.flac" WAVE TRACK 01 AUDIO TITLE "Peak Society" PERFORMER "C.Y.B.E.R.F.U.N.K." INDEX 01 00:00:00 TRACK 02 AUDIO TITLE "Wunderbar" PERFORMER "C.Y.B.E.R.F.U.N.K." INDEX 01 05:07:45 TRACK 03 AUDIO TITLE "Kira Peak" PERFORMER "C.Y.B.E.R.F.U.N.K." INDEX 01 10:37:15 TRACK 04 AUDIO TITLE "Extasy Territory" PERFORMER "C.Y.B.E.R.F.U.N.K." INDEX 01 16:20:00


Трекер:  [ 13-Авг-2017 18:01 ]

  

Скачать .torrent

Размер .torrent файла 12 KB


Размер: 145 MB
Хэш (hash) релиза: c2480c0ca384c7ec68b00d6af15d299aafa45db8

Еще никто не оставлял запись к записи скачать торрент . Будь первым!

!Обратная связь