Скачать через торрент [VIDEO] Живое Life бесплатно русская версия torrent активатор

Если у вас наблюдаются проблемы со скриншотами, переходом по ссылками, скачиванием торрентов - проблемы в блокировщике рекламы AdBlock. #хорошегоДня!


Статистика раздачи
Размер:  1.55 GB   |    Зарегистрирован:  2 месяца 5 дней   |    .torrent скачан:  29 раз   |   
Раздают:  1  
   
Загрузка...
 
Автор Сообщение

Galfimbul

avatar Galfimbul


Живое / Life«Умное. Сильное. Бездушное»
Год выпуска: 2017
Страна: США / Columbia Pictures
Жанр: ужасы, фантастика, триллер
Продолжительность: 01:43:58
Перевод №1: Русский Профессиональный (полное дублирование) Blu-ray EUR
Перевод №2: Русский Авторский (одноголосый, закадровый) Вартан Дохалов
Оригинальная дорожка: Есть
Субтитры: русские (форсированные, полные), английские (форсированные, полные, SDH)Режиссер: Даниэль Эспиноса / Daniel EspinosaВ ролях: Хироюки Санада (Sho Murakami), Райан Рейнольдс (Rory Adams), Ребекка Фергюсон (Miranda North), Джейк Джилленхол (David Jordan), Ольга Дыховичная (Ekaterina Golovkina), Эрион Бакаре (Hugh Derry), Хесус Дель Орден (Student 2), Аллен МакЛин (Student 1), Лейла Грэйс Боствик-Ридделл (Student 3), Мари Гвелесиани (Student 4) .Описание: Группа исследователей с международного космического корабля обнаруживает жизнь на Марсе. Они еще не подозревают, какие события повлечет за собой их открытие. Релиз группы Качество: BDRip / рип с Blu-ray EUR 1080p
Формат: MP4
Видео кодек: H.264
Аудио кодек: AAC
Видео: 960х402 AR:2.39 1740 kbps 23.976 fps
Аудио №1: [Russian] 2ch 48 kHz 128 kbps - Профессиональный (полное дублирование) Blu-ray EUR
Аудио №2: [Russian] 2ch 48 kHz 128 kbps - Авторский (одноголосый, закадровый) Вартан Дохалов
Аудио №3: [English] 2ch 48 kHz 128 kbps - Оригинал
avs [info]: 960x402p 1:1 @ 24000/1001 fps (cfr)
x264 [info]: using SAR=1/1
x264 [info]: using cpu capabilities: MMX2 SSE2Fast SSSE3 SSE4.2 AVX FMA3 AVX2 LZCNT BMI2
x264 [info]: profile High, level 4.1

x264 [info]: frame I:1267 Avg QP:10.92 size: 52370
x264 [info]: frame P:32060 Avg QP:14.35 size: 19734
x264 [info]: frame B:116241 Avg QP:16.20 size: 5658
x264 [info]: consecutive B-frames: 2.4% 3.4% 7.2% 19.2% 17.8% 26.8% 6.8% 13.4% 3.1%
x264 [info]: mb I I16..4: 14.5% 59.0% 26.4%
x264 [info]: mb P I16..4: 0.8% 10.8% 2.4% P16..4: 26.5% 33.7% 13.0% 0.0% 0.0% skip:12.8%
x264 [info]: mb B I16..4: 0.2% 1.1% 0.5% B16..8: 30.4% 21.4% 3.7% direct: 4.2% skip:38.6% L0:42.3% L1:42.2% BI:15.5%
x264 [info]: 8x8 transform intra:70.4% inter:50.0%
x264 [info]: direct mvs spatial:97.4% temporal:2.6%
x264 [info]: coded y,uvDC,uvAC intra: 79.1% 74.6% 57.4% inter: 20.8% 14.6% 7.7%
x264 [info]: i16 v,h,dc,p: 51% 9% 5% 35%
x264 [info]: i8 v,h,dc,ddl,ddr,vr,hd,vl,hu: 14% 9% 10% 8% 11% 11% 11% 11% 13%
x264 [info]: i4 v,h,dc,ddl,ddr,vr,hd,vl,hu: 27% 6% 21% 6% 10% 9% 8% 7% 8%
x264 [info]: i8c dc,h,v,p: 37% 32% 19% 13%
x264 [info]: Weighted P-Frames: Y:12.0% UV:6.3%
x264 [info]: ref P L0: 50.5% 9.4% 18.3% 7.1% 5.3% 3.7% 3.3% 2.1% 0.3% 0.0%
x264 [info]: ref B L0: 77.5% 11.5% 5.3% 2.6% 1.8% 1.0% 0.4%
x264 [info]: ref B L1: 94.9% 5.1%
x264 [info]: kb/s:1739.90

encoded 149568 frames, 15.11 fps, 1739.90 kb/s
GeneralComplete name : D:\Torrents\Life.2017.BDRip.x264.960x.rip by Frost O.S.mp4Format : MPEG-4Format profile : Base MediaCodec ID : isom (isom)File size : 1.55 GiBDuration : 1 h 43 minOverall bit rate mode : VariableOverall bit rate : 2 132 kb/sEncoded date : UTC 2017-08-13 14:09:44Tagged date : UTC 2017-08-13 14:09:44Writing application : My MP4Box GUI 0.6.0.6

VideoID : 1Format : AVCFormat/Info : Advanced Video CodecFormat profile : High@L4.1Format settings, CABAC : YesFormat settings, ReFrames : 8 framesCodec ID : avc1Codec ID/Info : Advanced Video CodingDuration : 1 h 43 minBit rate : 1 740 kb/sMaximum bit rate : 11.8 Mb/sWidth : 960 pixelsHeight : 402 pixelsDisplay aspect ratio : 2.40:1Frame rate mode : ConstantFrame rate : 23.976 (24000/1001) FPSColor space : YUVChroma subsampling : 4:2:0Bit depth : 8 bitsScan type : ProgressiveBits/(Pixel*Frame) : 0.188Stream size : 1.26 GiB (82%)Title : Life.2017.BDRip.x264.960x.rip by Frost O.S.mp4Writing library : x264 core 148 r2744 b97ae06Encoding settings : cabac=1 / ref=8 / deblock=1:-3:-3 / analyse=0x3:0x113 / me=umh / subme=11 / psy=1 / psy_rd=0.90:0.00 / mixed_ref=1 / me_range=48 / chroma_me=1 / trellis=2 / 8x8dct=1 / cqm=0 / deadzone=21,11 / fast_pskip=0 / chroma_qp_offset=-2 / threads=6 / lookahead_threads=1 / sliced_threads=0 / nr=0 / decimate=0 / interlaced=0 / bluray_compat=0 / constrained_intra=0 / bframes=8 / b_pyramid=2 / b_adapt=2 / b_bias=0 / direct=3 / weightb=1 / open_gop=0 / weightp=2 / keyint=250 / keyint_min=23 / scenecut=40 / intra_refresh=0 / rc=2pass / mbtree=0 / bitrate=1740 / ratetol=1.0 / qcomp=0.80 / qpmin=0 / qpmax=69 / qpstep=4 / cplxblur=20.0 / qblur=0.5 / ip_ratio=1.40 / pb_ratio=1.30 / aq=3:0.60Encoded date : UTC 2017-08-12 16:53:12Tagged date : UTC 2017-08-13 14:10:17Color range : LimitedColor primaries : BT.709Transfer characteristics : BT.709Matrix coefficients : BT.709

Audio #1ID : 2Format : AACFormat/Info : Advanced Audio CodecFormat profile : LCCodec ID : 40Duration : 1 h 43 minBit rate mode : VariableBit rate : 128 kb/sMaximum bit rate : 136 kb/sChannel(s) : 2 channelsChannel positions : Front: L RSampling rate : 48.0 kHzFrame rate : 46.875 FPS (1024 spf)Compression mode : LossyStream size : 95.2 MiB (6%)Title : Russian / Dub, Blu-ray EUREncoded date : UTC 2017-08-13 14:10:06Tagged date : UTC 2017-08-13 14:10:17

Audio #2ID : 3Format : AACFormat/Info : Advanced Audio CodecFormat profile : LCCodec ID : 40Duration : 1 h 43 minBit rate mode : VariableBit rate : 128 kb/sMaximum bit rate : 136 kb/sChannel(s) : 2 channelsChannel positions : Front: L RSampling rate : 48.0 kHzFrame rate : 46.875 FPS (1024 spf)Compression mode : LossyStream size : 95.2 MiB (6%)Title : Russian / VO, DokhalovEncoded date : UTC 2017-08-13 14:10:11Tagged date : UTC 2017-08-13 14:10:17

Audio #3ID : 4Format : AACFormat/Info : Advanced Audio CodecFormat profile : LCCodec ID : 40Duration : 1 h 43 minBit rate mode : VariableBit rate : 128 kb/sMaximum bit rate : 136 kb/sChannel(s) : 2 channelsChannel positions : Front: L RSampling rate : 48.0 kHzFrame rate : 46.875 FPS (1024 spf)Compression mode : LossyStream size : 95.2 MiB (6%)Title : English / OriginalEncoded date : UTC 2017-08-13 14:10:14Tagged date : UTC 2017-08-13 14:10:17

Text #1ID : 5Format : Timed TextCodec ID : tx3gDuration : 1 h 36 minBit rate mode : VariableBit rate : 2 b/sStream size : 1.58 KiB (0%)Title : Russian / ForcedForced : NoEncoded date : UTC 2017-08-13 14:10:17Tagged date : UTC 2017-08-13 14:10:17

Text #2ID : 6Format : Timed TextCodec ID : tx3gDuration : 1 h 36 minBit rate mode : VariableBit rate : 83 b/sStream size : 58.5 KiB (0%)Title : Russian / FullForced : NoEncoded date : UTC 2017-08-13 14:10:17Tagged date : UTC 2017-08-13 14:10:17

Text #3ID : 7Format : Timed TextCodec ID : tx3gDuration : 1 h 11 minBit rate mode : VariableBit rate : 1 b/sStream size : 342 Bytes (0%)Title : English / ForcedForced : NoEncoded date : UTC 2017-08-13 14:10:17Tagged date : UTC 2017-08-13 14:10:17

Text #4ID : 8Format : Timed TextCodec ID : tx3gDuration : 1 h 34 minBit rate mode : VariableBit rate : 51 b/sStream size : 35.2 KiB (0%)Title : English / FullForced : NoEncoded date : UTC 2017-08-13 14:10:17Tagged date : UTC 2017-08-13 14:10:17

Text #5ID : 9Format : Timed TextCodec ID : tx3gDuration : 1 h 36 minBit rate mode : VariableBit rate : 76 b/sStream size : 53.7 KiB (0%)Title : English / SDHForced : NoEncoded date : UTC 2017-08-13 14:10:17Tagged date : UTC 2017-08-13 14:10:17


Трекер:  [ 13-Авг-2017 17:42 ]

  

Скачать .torrent

Размер .torrent файла 16 KB


Размер: 1.55 GB
Хэш (hash) релиза: 7a20d940057d82ce1c0c21058d2f924f009f5e84

Торренты, похожие на [VIDEO] Живое Life скачать торрент

Форум Название Автор Размер S L Добавлен
Видео (Фильмы/Клипы) ·· [VIDEO] Живое / Life (Даниэль Эспиноса / Daniel Espinosa) [2017, ужасы, фантастика, триллер, HDRip] [3GP, 320x] Dub Blu-ray EUR Galfimbul 374914831358 MB 0 0 1502635360

17:42

13-Авг-17

Видео (Фильмы/Клипы) ·· [VIDEO] Живое / Life (Даниэль Эспиноса / Daniel Espinosa) [2017, ужасы, фантастика, триллер, HDRip] [MP4, 480x] Dub Blu-ray EUR Galfimbul 498939312476 MB 0 0 1502635349

17:42

13-Авг-17

Еще никто не оставлял запись к записи скачать торрент [VIDEO] Живое Life . Будь первым!

!Обратная связь