Скачать через торрент [VIDEO] Живое Life бесплатно русская версия torrent активатор

Если у вас наблюдаются проблемы со скриншотами, переходом по ссылками, скачиванием торрентов - проблемы в блокировщике рекламы AdBlock. #хорошегоДня!


Статистика раздачи
Размер:  476 MB   |    Зарегистрирован:  2 месяца 5 дней   |    .torrent скачан:  15 раз   |   
Раздают:  1  
   
Загрузка...
 
Автор Сообщение

Galfimbul

avatar Galfimbul


Живое / Life«Умное. Сильное. Бездушное»
Год выпуска: 2017
Страна: США / Columbia Pictures
Жанр: ужасы, фантастика, триллер
Продолжительность: 01:43:58
Перевод: Русский Профессиональный (полное дублирование) Blu-ray EUR
Субтитры: нетРежиссер: Даниэль Эспиноса / Daniel EspinosaВ ролях: Хироюки Санада (Sho Murakami), Райан Рейнольдс (Rory Adams), Ребекка Фергюсон (Miranda North), Джейк Джилленхол (David Jordan), Ольга Дыховичная (Ekaterina Golovkina), Эрион Бакаре (Hugh Derry), Хесус Дель Орден (Student 2), Аллен МакЛин (Student 1), Лейла Грэйс Боствик-Ридделл (Student 3), Мари Гвелесиани (Student 4) .Описание: Группа исследователей с международного космического корабля обнаруживает жизнь на Марсе. Они еще не подозревают, какие события повлечет за собой их открытие. Релиз группы Качество: HDRip / рип с BDRip 720p
Формат: MP4
Видео кодек: XviD
Аудио кодек: AAC
Видео: 480х200 AR:2.40 508 kbps 23.976 fps
Аудио: [Russian] 2ch 48 kHz 128 kbps - Профессиональный (полное дублирование) Blu-ray EUR
GeneralComplete name : D:\Torrents\Life.2017.HDRip.XviD.480x.rip by Frost O.S.mp4Format : MPEG-4Format profile : Base MediaCodec ID : isom (isom)File size : 476 MiBDuration : 1 h 43 minOverall bit rate mode : VariableOverall bit rate : 640 kb/sEncoded date : UTC 2017-08-13 14:20:00Tagged date : UTC 2017-08-13 14:20:00Writing application : My MP4Box GUI 0.6.0.6

VideoID : 1Format : MPEG-4 VisualFormat profile : Advanced Simple@L5Format settings, BVOP : YesFormat settings, QPel : NoFormat settings, GMC : No warppointsFormat settings, Matrix : CustomCodec ID : 20Duration : 1 h 43 minBit rate mode : VariableBit rate : 508 kb/sMaximum bit rate : 2 871 kb/sWidth : 480 pixelsHeight : 200 pixelsDisplay aspect ratio : 2.40:1Frame rate mode : VariableFrame rate : 23.976 (24000/1001) FPSMinimum frame rate : 11.988 FPSMaximum frame rate : 23.976 FPSColor space : YUVChroma subsampling : 4:2:0Bit depth : 8 bitsScan type : ProgressiveCompression mode : LossyBits/(Pixel*Frame) : 0.221Stream size : 378 MiB (79%)Title : Life.2017.HDRip.XviD.480x.rip by Frost O.S.mp4Writing library : XviD 1.2.1 (UTC 2008-12-04)Encoded date : UTC 2017-08-13 14:20:00Tagged date : UTC 2017-08-13 14:20:18

AudioID : 2Format : AACFormat/Info : Advanced Audio CodecFormat profile : LCCodec ID : 40Duration : 1 h 43 minBit rate mode : VariableBit rate : 128 kb/sMaximum bit rate : 136 kb/sChannel(s) : 2 channelsChannel positions : Front: L RSampling rate : 48.0 kHzFrame rate : 46.875 FPS (1024 spf)Compression mode : LossyStream size : 95.2 MiB (20%)Title : Russian / Dub, Blu-ray EUREncoded date : UTC 2017-08-13 14:20:10Tagged date : UTC 2017-08-13 14:20:18


Трекер:  [ 13-Авг-2017 17:42 ]

  

Скачать .torrent

Размер .torrent файла 19 KB


Размер: 476 MB
Хэш (hash) релиза: 6b538c41a74efb4926cf544cdf71ee13862de5f2

Еще никто не оставлял запись к записи скачать торрент [VIDEO] Живое Life . Будь первым!

!Обратная связь